Amor ciego 1080p dual












Hal Larson (Jack Black) es un hombre superficial, cuya obsesión por la belleza física se interpone frente a la belleza interior de la mujer. Hal y su amigo igualmente superficial, Mauricio Wilson (Jason Alexander), pasan sus noches siendo rechazados por mujeres hermosas en las discotecas.

Por un giro del destino, Hal se queda atrapado en un ascensor con el famoso orador motivacional, Tony Robbins, quien después de hablar con Hal, lo hipnotiza para que vea la belleza interior manifestada físicamente en una persona. Hal, más tarde conoce y se enamora de Rosemary Shanahan (Gwyneth Paltrow), la hija de Steve Shanahan (Joe Viterelli), el presidente de la compañía en la cual Hal trabaja. Rosemary es obesa, pero su amable y generosa personalidad, hace que Hal la vea esbelta y hermosa. Rosemary acostumbrada a ser ignorada por los hombres debido a su apariencia, inicialmente interpreta el interés de Hal en ella como una burla, pero comienza a salir con Hal, y se da cuenta que sus sentimientos hacia ella son auténticos.

Mauricio se preocupa cada vez más al ver los nuevos gustos de Hal en las mujeres y convence a Robbins, para que le de la frase para deshacer la hipnosis. Mauricio llama por teléfono, mientras que Hal está en una cita con Rosemary y dice la frase, "el Hal superficial quiere a una chica", que sirve para romper la hipnosis de Hal. Mauricio le confiesa a Hal la verdad acerca de la hipnoterapia de Robbins, pero Hal no cree esto hasta que se topa con Katrina, (Brooke Burns), una mujer que inicialmente parecía hermosa para él debido a su belleza interior, pero Hal ahora la veía poco atractiva.

Hal comienza a evitar a Rosemary, quien a su vez se pone melancólico, al no estar con su amada. Angustiado por no ver a la "verdadera" Rosemary, Hal acepta una invitación a cenar de su vecina, Jill (Susan Ward), con quien tuvo una vez una cita sin éxito. Juntos en un restaurante, Jill le dice a Hal que lo ha observado y ve la superación de su naturaleza superficial y que ella está interesada en salir con él ahora.

Sin embargo, Hal se da cuenta de que sus verdaderos sentimientos son para Rosemary, que ha llegado casualmente al mismo restaurante con su familia y ve a Hal y Jill sentados juntos. Rosemary piensa lo peor, y sale llorando. Al no reconocer a Rosemary, Hal pasa por el lado de ella, camino hacia el teléfono público, irónicamente al reafirmar sus sentimientos, Hal llama a Rosemary, confundida y angustiada, Rosemary llama Hal un "psicópata" a través del teléfono y efectivamente rompe con él.

Cinco días más tarde, Hal es castigado por el Sr. Shanahan en el trabajo, que fríamente le informa de que Ralph (Zen Gesner) jefe del Cuerpo de Paz y ex-pareja de Rosemary, que quiere tener una relación con ella. Hal intenta encontrar a Rosemary en el hospital en donde es voluntaria, pero se encuentra con una paciente, una joven llamada Cadence (Brianna Gardner). Anteriormente, debido a la hipnosis de Robbins, Hal vio a Cadence como una niña perfecta, ahora ve que tiene graves quemaduras en su cara. Hal se da cuenta de que no necesita la hipnosis para ver la belleza interior de las personas

Rosemary decide abandonar el país para reunirse con el Cuerpo de Paz. Hal, en su búsqueda, se encuentra con Mauricio, quien le comenta que tenía sus propias razones para detener la hipnosis: Mauricio tiene una cola rudimentaria, su vergüenza, la que le ha impedido alguna vez acercarse a una mujer. Mauricio confiesa que él estaba celoso de la felicidad de Hal y tiene miedo de iniciar relaciones con las mujeres.

Hal decide tratar de reconciliarse con Rosemary. Hal llega a la mansión Shanahan, donde hay una fiesta de despedida para Rosemary por su viaje con el Cuerpo de Paz. Rosemary inicialmente rechaza la presencia de Hal, pero luego acepta su disculpa cuando Hal le declara su amor por ella. Rosemary le informa a Hal que se va por 14 meses, Hal le dice que no puede esperar tanto tiempo, así que decide ir con ella, anteriormente Hal se había inscrito como voluntario en el Cuerpo de Paz con Ralph.

Hal y Rosemary se reconcilian y son aplaudidos por la multitud mientras se besan. Hal trata de llevar a su novia en brazos hacia el auto, pero descubre que no puede levantarla, por lo que lo Rosemary lo lleva al coche en su lugar. A medida que se alejan, Mauricio conoce a una mujer que adora a los perritos y el la invita un trago, se dan media vuelta juntos, y se ve como Mauricio mueve su "cola", demostrando que esta feliz.



















General
Unique ID                                : 217034551608823491210632835951414719974 (0xA347558D8ABE5041B467D27E8913B5E6)
Complete name                            : C:UsersPCDesktopMy Shared FolderBlu-Ray a GrabarAmor CiegoAmor Ciego.mkv
Format                                   : Matroska
Format version                           : Version 2
File size                                : 3.07 GiB
Duration                                 : 1h 53mn
Overall bit rate                         : 3 862 Kbps
Encoded date                             : UTC 2014-05-24 07:54:21
Writing application                      : mkvmerge v5.1.0 ('And so it goes') built on Nov 28 2011 23:58:28
Writing library                          : libebml v1.2.3 + libmatroska v1.3.0

Video
ID                                       : 1
Format                                   : AVC
Format/Info                              : Advanced Video Codec
Format profile                           : [email protected]
Format settings, CABAC                   : Yes
Format settings, ReFrames                : 2 frames
Muxing mode                              : Header stripping
Codec ID                                 : V_MPEG4/ISO/AVC
Duration                                 : 1h 53mn
Bit rate                                 : 2 889 Kbps
Width                                    : 1 920 pixels
Height                                   : 1 080 pixels
Display aspect ratio                     : 16:9
Frame rate                               : 23.976 fps
Color space                              : YUV
Chroma subsampling                       : 4:2:0
Bit depth                                : 8 bits
Scan type                                : Progressive
Bits/(Pixel*Frame)                       : 0.058
Stream size                              : 2.29 GiB (75%)
Writing library                          : x264 core
Default                                  : Yes
Forced                                   : No
Color primaries                          : BT.709-5, BT.1361, IEC 61966-2-4, SMPTE RP177
Transfer characteristics                 : BT.709-5, BT.1361
Matrix coefficients                      : BT.709-5, BT.1361, IEC 61966-2-4 709, SMPTE RP177

Audio #1
ID                                       : 2
Format                                   : AC-3
Format/Info                              : Audio Coding 3
Mode extension                           : CM (complete main)
Muxing mode                              : Header stripping
Codec ID                                 : A_AC3
Duration                                 : 1h 53mn
Bit rate mode                            : Constant
Bit rate                                 : 448 Kbps
Channel(s)                               : 6 channels
Channel positions                        : Front: L C R, Side: L R, LFE
Sampling rate                            : 48.0 KHz
Bit depth                                : 16 bits
Compression mode                         : Lossy
Stream size                              : 364 MiB (12%)
Title                                    : Audio Español Latino
Language                                 : Latin
Default                                  : Yes
Forced                                   : No

Audio #2
ID                                       : 3
Format                                   : AC-3
Format/Info                              : Audio Coding 3
Mode extension                           : CM (complete main)
Muxing mode                              : Header stripping
Codec ID                                 : A_AC3
Duration                                 : 1h 53mn
Bit rate mode                            : Constant
Bit rate                                 : 448 Kbps
Channel(s)                               : 6 channels
Channel positions                        : Front: L C R, Side: L R, LFE
Sampling rate                            : 48.0 KHz
Bit depth                                : 16 bits
Compression mode                         : Lossy
Stream size                              : 364 MiB (12%)
Title                                    : Audio Ingles
Language                                 : English
Default                                  : No
Forced                                   : No

























1080Amigos





Amor ciego 1080p dual
44 Puntos Score: 8.8/10
Visitas: 3290 Favoritos: 4
Ver los usuarios que votaron...
7 Comentarios Amor ciego 1080p dual
Muchas gracias
Muchas gracias por el aporte se agradece mucho
Para dejar un comentario Registrate! o.. eres ya usuario? Accede!