Tiny Toons Aventuras Como pase mis vacaciones 1992

Que tal amigos, hoy les traigo esta película que me encontré navegando en la red, para que algunos de nosotros recordemos esas épocas, espero les sea de su agrado




Capturas




Info:

General
Format                                   : AVI
Format/Info                              : Audio Video Interleave
File size                                : 825 MiB
Duration                                 : 1h 19mn
Overall bit rate                         : 1 442 Kbps
Writing application                      : VirtualDubMod 1.5.10.2 (build 2542/release)
Writing library                          : VirtualDubMod build 2542/release

Video
ID                                       : 0
Format                                   : MPEG-4 Visual
Format profile                           : Advanced [email protected]
Format settings, BVOP                    : 1
Format settings, QPel                    : No
Format settings, GMC                     : No warppoints
Format settings, Matrix                  : Default (H.263)
Muxing mode                              : Packed bitstream
Codec ID                                 : XVID
Codec ID/Hint                            : XviD
Duration                                 : 1h 19mn
Bit rate                                 : 1 305 Kbps
Width                                    : 800 pixels
Height                                   : 608 pixels
Display aspect ratio                     : 4:3
Frame rate                               : 29.970 fps
Color space                              : YUV
Chroma subsampling                       : 4:2:0
Bit depth                                : 8 bits
Scan type                                : Progressive
Compression mode                         : Lossy
Bits/(Pixel*Frame)                       : 0.090
Stream size                              : 746 MiB (91%)
Writing library                          : XviD 64

Audio
ID                                       : 1
Format                                   : AC-3
Format/Info                              : Audio Coding 3
Mode extension                           : CM (complete main)
Format settings, Endianness              : Big
Codec ID                                 : 2000
Duration                                 : 1h 19mn
Bit rate mode                            : Constant
Bit rate                                 : 128 Kbps
Channel count                            : 2 channels
Channel positions                        : Front: L R
Sampling rate                            : 48.0 KHz
Bit depth                                : 16 bits
Compression mode                         : Lossy
Stream size                              : 73.2 MiB (9%)
Alignment                                : Split accross interleaves
Interleave, duration                     : 64 ms (1.92 video frames)
Interleave, preload duration             : 500 ms



Tiny Toons Aventuras Como pase mis vacaciones 1992
55 Puntos Score: 7.9/10
Visitas: 2519 Favoritos: 5
Ver los usuarios que votaron...
10 Comentarios Tiny Toons Aventuras Como pase mis vacaciones 1992
gracias por el aporte
gracias amigo nunca la vi le van 10
gracias llevaba mucho tiempo buscandola en latino  
@carloari @jhunhoon @licker77 @ACEZITSU gracias a ustedes por sus comentarios!
Muchas Gracias!!!
@TioPepo a ti amigo por pasarte!
Gracias!!!!!!!!!!
Para dejar un comentario Registrate! o.. eres ya usuario? Accede!