The Walking Dead SE01 Español Castellano MG



Para los que aun no han visto la serie de the walking dead hoy les comparto la primer temporada en formato HDTV y audio en Español Castellano.



Un itro de la serie.




Son 6 capitulos de la primer temporada
con las sguientes caracteristicas.

info por KMPlayer 3.9


C:UsershitesDesktoptomTWD_SE01_E01.avi
   General
      Complete name : C:UsershitesDesktoptomTWD_SE01_E01.avi
      Format : AVI
      Format/Info : Audio Video Interleave
      File size : 352 MiB
      Duration : 45mn 13s
      Overall bit rate mode : Variable
      Overall bit rate : 1 088 Kbps
      Writing application : MEncoder SVN-r29417-4.1.2
      Writing library : MPlayer
   Video #0
      ID : 0
      Format : MPEG-4 Visual
      Format profile : Advanced [email protected]
      Format settings, BVOP : 2
      Format settings, QPel : No
      Format settings, GMC : No warppoints
      Format settings, Matrix : Default (MPEG)
      Codec ID : XVID
      Codec ID/Hint : XviD
      Duration : 45mn 13s
      Bit rate : 938 Kbps
      Width : 624 pixels
      Height : 352 pixels
      Display aspect ratio : 16:9
      Frame rate : 25.000 fps
      Color space : YUV
      Chroma subsampling : 4:2:0
      Bit depth : 8 bits
      Scan type : Progressive
      Compression mode : Lossy
      Bits/(Pixel*Frame) : 0.171
      Stream size : 303 MiB (86%)
      Writing library : XviD 1.2.0SMP (UTC 2006-01-08)
   Audio #1
      ID : 1
      Format : MPEG Audio
      Format version : Version 1
      Format profile : Layer 3
      Mode : Joint stereo
      Mode extension : MS Stereo
      Codec ID : 55
      Codec ID/Hint : MP3
      Duration : 45mn 13s
      Bit rate mode : Variable
      Bit rate : 137 Kbps
      Minimum bit rate : 32.0 Kbps
      Channel(s) : 2 channels
      Sampling rate : 48.0 KHz
      Compression mode : Lossy
      Stream size : 44.5 MiB (13%)
      Alignment : Aligned on interleaves
      Interleave, duration : 24 ms (0.60 video frame)
      Interleave, preload duration : 458 ms
      Writing library : LAME3.98r
      Encoding settings : -m j -V 5 -q 0 -lowpass 16.5 --vbr-new -b 32



Links por Mega.


Cita: Mostrar


hay que renombrar los arcvhivos que estan en .identi a .avi
The Walking Dead SE01 Español Castellano MG
10 Puntos Score: 10/10
Visitas: 632 Favoritos: 0
Ver los usuarios que votaron...
2 Comentarios The Walking Dead SE01 Español Castellano MG
Una pregunta la temporada 5 empezo en febrero x cual capitulo????  
Yo lo quiero en 1080p  
Para dejar un comentario Registrate! o.. eres ya usuario? Accede!