facuelfacha12
"Intentare subir algo para compartir en identi."

Smallville Temp 2 Mega


Hola bienvenido a mi post
General
Complete name                            : D:aparteFacu archivosJuegosSeriesSmall VilleTemporada 02Smallville 2x1.avi
Format                                   : AVI
Format/Info                              : Audio Video Interleave
File size                                : 106 MiB
Duration                                 : 42mn 45s
Overall bit rate                         : 347 Kbps
Writing application                      : VirtualDubMod 1.5.10.2 (build 2540/release)
Writing library                          : VirtualDubMod build 2540/release

Video
ID                                       : 0
Format                                   : MPEG-4 Visual
Format profile                           : Advanced [email protected]
Format settings, BVOP                    : 2
Format settings, QPel                    : No
Format settings, GMC                     : No warppoints
Format settings, Matrix                  : Default (H.263)
Muxing mode                              : Packed bitstream
Codec ID                                 : XVID
Codec ID/Hint                            : XviD
Duration                                 : 42mn 45s
Bit rate                                 : 306 Kbps
Width                                    : 640 pixels
Height                                   : 352 pixels
Display aspect ratio                     : 16:9
Frame rate                               : 23.976 fps
Color space                              : YUV
Chroma subsampling                       : 4:2:0
Bit depth                                : 8 bits
Scan type                                : Progressive
Compression mode                         : Lossy
Bits/(Pixel*Frame)                       : 0.057
Stream size                              : 93.7 MiB (88%)
Writing library                          : XviD 1.1.2 (UTC 2006-11-01)

Audio
ID                                       : 1
Format                                   : MPEG Audio
Format version                           : Version 2.5
Format profile                           : Layer 3
Mode                                     : Joint stereo
Mode extension                           : Intensity Stereo + MS Stereo
Codec ID                                 : 55
Codec ID/Hint                            : MP3
Duration                                 : 42mn 45s
Bit rate mode                            : Constant
Bit rate                                 : 32.0 Kbps
Channel(s)                               : 2 channels
Sampling rate                            : 11.025 KHz
Compression mode                         : Lossy
Stream size                              : 9.74 MiB (9%)
Alignment                                : Split accross interleaves
Interleave, duration                     : 42 ms (1.00 video frame)
Interleave, preload duration             : 502 ms



PESO: 101 MB cada capitulo
SERVIDOR: Mega
UPLOADER: facuelfacha12




La serie narra las aventuras del joven Clark Kent en el pueblo ficticio de Smallville, Kansas, durante los años previos a que él se convierta en Superman. Las primeras cuatro temporadas se centran en Clark y sus amigos durante el instituto (High School).















facuelfacha12

Cualquier link caido,error,problema Avísenme yo haré lo posible para arreglarlo
Este y Todos los juegos son probados por mi antes de subir

Ademas contiene 3% de registro de recuperacion
Smallville Temp 2 Mega
45 Puntos Score: 9/10
Visitas: 1303 Favoritos: 5
Ver los usuarios que votaron...
15 Comentarios Smallville Temp 2 Mega
Buena por esa, busco toda la serie completa, sera que tienes mas, que avatar esta melo  
@xtremen Esta es la temporada 2 en mis otros post esta la 1 y tengo hasta la 3 vere si encuentro las otra y las subo...
Por lo del titulo no me deja cambiarlo hasta pasar 10 minutos  
@xtremen Muchas gracias por pasar y por los puntos  
@facuelfacha12 usted sabe que el trabajo se valora
gracias es genial  
@Quantumbit @Mackee Muchas gracias por pasar y no me importa los puntos
gracias por la temporada  
muchas gracias amigo, vas a subir las otras temporadas?  
@JAFC1902 Muchas gracias por pasar
 @Bigboss311  Si subire la 3 y buscare las siguientes las descargare y las subir?
dejo puntos ... grax
hola esta un poco desfasado el audio no ? almenos en los ultimos cap me puedes confirmar o soy yo?
@Quantumbit Si lo siento el ultimo si tiene problemas   pero probe los anteriores y funciona bien   Perdon por eso
cual es la contrase?
Para dejar un comentario Registrate! o.. eres ya usuario? Accede!