los chicos son mejores que las flores esp lat mg

SON LOS 25 CAPITULOS EN ESPAÑOL LATINO




DATOS DEL FORMATO

Video                                     AVI

ID                                       : 0

Format                                   : MPEG-4 Visual

Format profile                           : Advanced [email protected]

Format settings, BVOP                    : 2

Format settings, QPel                    : No

Format settings, GMC                     : No warppoints

Format settings, Matrix                  : Default (H.263)

Codec ID                                 : XVID

Codec ID/Hint                            : XviD

Duration                                 : 1h 4mn

Bit rate                                 : 1 125 Kbps

Width                                    : 640 pixels

Height                                   : 352 pixels

Display aspect ratio                     : 16:9

Original display aspect ratio            : 16:9

Frame rate                               : 29.970 fps

Color space                              : YUV

Chroma subsampling                       : 4:2:0

Bit depth                                : 8 bits

Scan type                                : Progressive

Compression mode                         : Lossy

Bits/(Pixel*Frame)                       : 0.167

Stream size                              : 520 MiB (89%)

Writing library                          : XviD 1.2.1 (UTC 2008-12-04)


Audio

ID                                       : 1

Format                                   : MPEG Audio

Format version                           : Version 1

Format profile                           : Layer 3

Mode                                     : Joint stereo

Mode extension                           : MS Stereo

Codec ID                                 : 55

Codec ID/Hint                            : MP3

Duration                                 : 1h 4mn

Bit rate mode                            : Constant

Bit rate                                 : 128 Kbps

Channel(s)                               : 2 channels

Sampling rate                            : 44.1 KHz

Compression mode                         : Lossy

Delay relative to video                  : 33ms

Stream size                              : 59.1 MiB (10%)

Alignment                                : Aligned on interleaves

Interleave, duration                     : 26 ms (0.78 video frame)

Interleave, preload duration             : 522 ms

Writing library                          : LAME3.98






LINK MEGA
[mg]https://mega.co.nz/#F!T9xBhJyB!0PPgRSHo43KXTxkzYiHN8Q[/mg][/size]

COMPARTO ESTE POST COMO LO COMPARTIERON CONMIGO.

¡¡DIVIERTANSE!! VIENDOLO QUE LO DISFRUTEN.


los chicos son mejores que las flores esp lat mg
15 Puntos Score: 7.5/10
Visitas: 1865 Favoritos: 3
Ver los usuarios que votaron...
9 Comentarios los chicos son mejores que las flores esp lat mg
Muchas gracias,yo me ve baje la versi?
me interesa verla, gracia.  
grcias descargando buen aporte
@D.Canario De donde la bajaste viejo  ?

@elhoms Gracias   ma?
gracia buen aporte , muy buena. donde puedo descargar mas ? son muy buenas  
Cita PKdoor: Mostrar
HASTA HAORITA SOLO TENGO ESTA. PERO ESPERO QUE TE GUSTE
Genial, muchas gracias  
gracias amigo, mi novia esta feliz con ?
@elhoms disculpa no la tienes en HD 720 o 1080
Para dejar un comentario Registrate! o.. eres ya usuario? Accede!