facuelfacha12
"Intentare subir algo para compartir en identi."

Smallville Temp 1 Mega


Hola bienvenido a mi post

General

General
Complete name                            : D:aparteFacu archivosHearts of iron 3SubidaSVS01- (2).avi
Format                                   : AVI
Format/Info                              : Audio Video Interleave
File size                                : 101 MiB
Duration                                 : 43mn 41s
Overall bit rate                         : 323 Kbps
Writing application                      : VirtualDubMod 1.5.10.2 (build 2540/release)
Writing library                          : VirtualDubMod build 2540/release

Video
ID                                       : 0
Format                                   : MPEG-4 Visual
Format profile                           : Advanced [email protected]
Format settings, BVOP                    : 2
Format settings, QPel                    : No
Format settings, GMC                     : No warppoints
Format settings, Matrix                  : Default (H.263)
Muxing mode                              : Packed bitstream
Codec ID                                 : XVID
Codec ID/Hint                            : XviD
Duration                                 : 43mn 41s
Bit rate                                 : 282 Kbps
Width                                    : 608 pixels
Height                                   : 336 pixels
Display aspect ratio                     : 16:9
Frame rate                               : 23.976 fps
Color space                              : YUV
Chroma subsampling                       : 4:2:0
Bit depth                                : 8 bits
Scan type                                : Progressive
Compression mode                         : Lossy
Bits/(Pixel*Frame)                       : 0.058
Stream size                              : 88.0 MiB (87%)
Writing library                          : XviD 1.1.2 (UTC 2006-11-01)

Audio
ID                                       : 1
Format                                   : MPEG Audio
Format version                           : Version 2.5
Format profile                           : Layer 3
Mode                                     : Joint stereo
Mode extension                           : Intensity Stereo + MS Stereo
Codec ID                                 : 55
Codec ID/Hint                            : MP3
Duration                                 : 43mn 41s
Bit rate mode                            : Constant
Bit rate                                 : 32.0 Kbps
Channel(s)                               : 2 channels
Sampling rate                            : 12.0 KHz
Compression mode                         : Lossy
Stream size                              : 10.00 MiB (10%)
Alignment                                : Split accross interleaves
Interleave, duration                     : 42 ms (1.00 video frame)
Interleave, preload duration             : 500 ms




PESO: 101 MB cada capitulo
SERVIDOR: Mega
UPLOADER: facuelfacha12




La serie narra las aventuras del joven Clark Kent en el pueblo ficticio de Smallville, Kansas, durante los años previos a que él se convierta en Superman. Las primeras cuatro temporadas se centran en Clark y sus amigos durante el instituto (High School).















facuelfacha12

Cualquier link caido,error,problema Avísenme yo haré lo posible para arreglarlo
Este y Todos los juegos son probados por mi antes de subir

Ademas contiene 3% de registro de recuperacion
El post esta mal echo o hay un error perdon pero Google Chrome no me funciona bien y no me deja crear post como se debe
Smallville Temp 1 Mega
41 Puntos Score: 8.2/10
Visitas: 2123 Favoritos: 6
Ver los usuarios que votaron...
10 Comentarios Smallville Temp 1 Mega
Me encanta esta serie!
Buen aporte.. dejo puntos
Subiras las demas temporadas??
cuando subes las demas, hace mucho que no veo un post de smallville, Gracias
gracias mi serie fav
Amigo tendras las demas temporadas?
@Mackee @Quantumbit Muchas gracias por pasar
@rocheteer @areg7 @Zulander Si tengo la 2 y la tercera y las voy a subir apenas termine de subir battlefield 2172
Muchas gracias por pasar a todos   y por los puntos  
amigo el capitulo 3 es el 1
y el 2 es el 21.... waaaa  
parece no estar bien ordenado
Para dejar un comentario Registrate! o.. eres ya usuario? Accede!