Oops.. Este post tiene los enlaces eliminados!

Identi revisa las denuncias de los usuarios en busca de enlaces eliminados que no dejan descargar los archivos, este mensaje te informa que este post que estas viendo tiene los enlaces eliminados.

Usa el Buscador

Por favor, te recomendamos que uses el buscador para encontrar más alternativas.

Justin Bieber Never Say Never [Latino] [DvDrip]

  • Categoría: Reciclaje
  • Publicado hace más de 5 años
Justin Bieber Never Say Never




Ficha técnica:

Título: Justin Bieber: Nunca dijas Nuca
Título original: Justin Bieber: Never Say Never
Dirección: Jon M. Chu
País: Estados Unidos
Año: 2011
Fecha de estreno: 15/04/2011
Género: Documental, Música, Biografic
Reparto: Miley Cyrus, Jaden Smith, Justin Bieber, Shawn Stockman, Wanya Morris, Nathan Morris
Distribuidora: Paramount Pictures
Lenguaje: Español, latino, castellano

Sinópsis:

Never Say Never es el título de la primera película biográfica de Justin Bieber, en donde se cuenta su historia desde cuando era un niño aficionado a la música, pasando por su descubrimiento y las relaciones con las personas que lo ayudaron en su carrera, con quienes el joven cantante tiene contacto hasta el día de hoy, tal es el caso de su mentor el cantante de rap, Usher.

Trailer:



MediaInfo:

Format                 : AVI
Format/Info              : Audio Video Interleave
File size                : 697 MiB
Duration               : 1h 45mn
Overall bit rate           : 927 Kbps
Writing application          : VirtualDubMod 1.5.10.2 (build 2540/release)
Writing library            : VirtualDub build 30586/release

Video
ID                   : 0
Format                 : MPEG-4 Visual
Format profile             : Advanced [email protected]
Format settings, BVOP        : 1
Format settings, QPel        : No
Format settings, GMC         : No warppoints
Format settings, Matrix      : Default (MPEG)
Codec ID               : XVID
Codec ID/Hint            : XviD
Duration               : 1h 45mn
Bit rate               : 789 Kbps
Width                  : 624 pixels
Height                 : 352 pixels
Display aspect ratio         : 16:9
Frame rate               : 23.976 fps
Color space              : YUV
Chroma subsampling         : 4:2:0
Bit depth                : 8 bits
Scan type                : Progressive
Compression mode           : Lossy
Bits/(Pixel*Frame)         : 0.150
Stream size              : 593 MiB (85%)
Writing library            : XviD 1.2.1 (UTC 2008-12-04)

Audio
ID                   : 1
Format                 : MPEG Audio
Format version             : Version 1
Format profile             : Layer 3
Codec ID               : 55
Codec ID/Hint            : MP3
Duration               : 1h 45mn
Bit rate mode            : Constant
Bit rate               : 128 Kbps
Channel(s)               : 2 channels
Sampling rate            : 48.0 KHz
Compression mode           : Lossy
Stream size              : 96.2 MiB (14%)
Alignment                : Split accross interleaves
Interleave, duration         : 42 ms (1.00 video frame)
Interleave, preload duration   : 500 ms



Capturas propias:








Descargar:


http://www.mediafire.com/zcxd66k35amib4q
 http://www.mediafire.com/8bqxp0wz6cc84fj
 http://www.mediafire.com/f8im79d32atyct2
 http://www.mediafire.com/ba5g52iijsgh24h
 http://www.mediafire.com/uqm6tzv64kt3x96
 http://www.mediafire.com/my810xtv8v6hu89
 http://www.mediafire.com/u71mtuku0b797dn
 http://www.mediafire.com/z83rbwpd2gd78zr


Justin Bieber Never Say Never [Latino] [DvDrip]
15 Puntos Score: 5/10
Visitas: 3620 Favoritos: 2
Ver los usuarios que votaron...
3 Comentarios Justin Bieber Never Say Never [Latino] [DvDrip]
Hola Un Gusto En Conocerte, Keria Saber Si Podrias Resuvir Los Link Xq Estan Muertos, Si No Es Mucha Molestia!.. DEsde Ya Muchisimas Grax
Cita GI_JOE: Mostrar
no puedo porq no tengo el respaldo...
Para dejar un comentario Registrate! o.. eres ya usuario? Accede!