Viaje a la Luna (1902) George Méliès [Color] 720p

Viaje a la Luna (1902) George Méliès










Georges Méliès fue un tipo fascinante. Ejemplo de hombre apasionado, que tras un punto de inflexión en su vida, vio la luz y se dirigió a ella. Un loco soñador.

Ese punto de inflexión no fue otro que su asistencia como invitado a la primera presentación, a cargo de los hermanos Lumière, de un nuevo invento llamado cinematógrafo. Méliès, un prestigioso mago e ilusionista e hijo de un fructuoso fabricante de calzado, tuvo la idea de llevar su espectáculo y habilidades un paso más allá, utilizando el cinematógrafo (que él mismo se encargó de modificar a partir de un modelo que adquirió previamente). El uso de esa nueva máquina le llevó un día a descubrir por accidente uno de sus más famosos aportes al cine, el truco de la sobreimpresión, que utilizaría para salirse de los límites de la realidad (límites que siempre había transgredido como ilusionista), y hacer soñar al público desafiando lo imposible.

Creó su propio set de rodaje junto a su casa y allí, en el 'laboratorio', ejerció de actor, director, pintor y guionista de sus propias películas, dado que la industria cinematográfica se encontraba todavía en pañales. En su afán por acercar los sueños al espectador, decidió llevar a la gran pantalla en 1902 la ambiciosa idea del viaje de unos científicos a la Luna en una nave impulsada por un cañón: 'Viaje a la Luna'. Hasta hoy, la imagen de esa secuencia que cualquiera guarda en su retina (la cara lunar con una nave espacial incrustada en el ojo) era inevitablemente en blanco y negro, pero desde hace años se conoce la existencia de una única copia coloreada a mano, aunque conservada en un deplorable estado.

Desde su descubrimiento en la Filmoteca de Cataluña en 1993 hasta hoy, cuando ya han concluido los trabajos de restauración, han pasado casi 20 años. Se ha tenido que esperar 10 años con las imágenes escaneadas aguardando en las tripas de un disco duro hasta que la tecnología ha podido dar una solución a su restauración.

La influencia de Méliès en el cine es incalculable; su luz aparece sobre muchos reconocidos cineastas como Tim Burton o Terry Gilliam, "supervivientes de ese espíritu imaginativo", según Bromberg. 'Viaje a la Luna', su obra cumbre, también tuvo un gran peso añadiendo madera al sueño de viajar fuera de nuestro planeta. "El sueño de llegar a la Luna viene unido al ser humano desde sus orígenes. El éxito de 'Viaje a la Luna' se debió a que la gente quería verla porque creía que, en efecto, se trataba de un viaje real a otro planeta. En esa época, la gente soñaba más viendo simples imágenes que hoy en día con películas como Avatar", opina Lange.

El descubrimiento de esta copia coloreada no es aislado, cada año se da con "cientos de rollos de películas", afirma Bromberg, el problema es el estado en el que se encuentran. Los directores de 'El viaje extraordinario' creen que "siempre hay esperanza" y esperan encontrar "nuevas copias en el futuro".


Dirección: George Méliès
Producción: Georges Méliès
Guion: Georges Méliès. Basado en las novelas De la Tierra a la Luna, de Julio Verne, y Los primeros hombres en la Luna, de H. G. Wells
Fotografía: Michaut, Lucien Tainguy
Protagonistas: Victor André, Bleuette Bernon, Brunnet, Jeanne d´Alcy, Henri Delannoy, Depierre, Farjaut, Kelm, Georges Méliès
País: Francia
Año: 1902
Género: Ciencia ficción, Fantástico
Duración: 14 minutos
Banda Sonora: No Original. Música de AIR
Subtítulos: NO Incluídos. (Es un film mudo, si bien existen subtitulos narrados en mi opinión no son necesarios)

General
Complete name: Le voyage dans la lune color 1902 720p BluRay DTS x264-DONLe voyage dans la lune color 1902 720p BluRay DTS x264-DON.mkv
Format : Matroska
Format version: Version 2
File size: 1.10 GiB
Duration: 15mn 36s
Overall bit rate: 10.1 Mbps
Movie name: "Le.voyage.dans.la.lune.en.couleur.1902.720p.BluRay.DTS.x264-DON"
Writing application: mkvmerge v5.7.0 ('The Whirlwind') built on Jul  8 2012 20:08:51
Writing library: libebml v1.2.3 + libmatroska v1.3.0

Video
ID: 1
Format: AVC
Format/Info: Advanced Video Codec
Format profile: [email protected]
Format settings, CABAC: Yes
Format settings, ReFrame: 12 frames
Codec ID: V_MPEG4/ISO/AVC
Duration: 15mn 36s
Bit rate: 8 580 Kbps
Width: 958 pixels
Height: 720 pixels
Display aspect ratio: 4:3
Frame rate mode: Constant
Frame rate: 15.983 fps
Original frame rate: 15.984 fps
Color space: YUV
Chroma subsampling: 4:2:0
Bit depth: 8 bits
Scan type: Progressive
Bits/(Pixel*Frame): 0.778
Stream size: 935 MiB (83%)
Title: Le voyage dans la lune en couleur 1902 720p BluRay DTS x264-DON
Default: Yes
Forced: No

Audio
ID: 2
Format: DTS
Format/Info: Digital Theater Systems
Mode: 16
Format settings, Endianness: Big
Codec ID: A_DTS
Duration: 15mn 36s
Bit rate mode: Constant
Bit rate: 1 509 Kbps
Channel(s): 6 channels
Channel positions: Front: L C R, Side: L R, LFE
Sampling rate: 48.0 KHz
Bit depth: 24 bits
Compression mode: Lossy
Stream size: 168 MiB (15%)
Title: DTS 5.1
Default: Yes
Forced : No






Enlaces De Descarga


Viaje a la Luna (1902) George Méliès [Color] 720p
38 Puntos Score: 7.6/10
Visitas: 1263 Favoritos: 3
Ver los usuarios que votaron...
11 Comentarios Viaje a la Luna (1902) George Méliès [Color] 720p
Gracias por la pel?
Cita joselpgmca: Mostrar
buenisimo!!!!!!!!!! siempre quise ver una de estas peliculas me llamaba la atencion cuando miraba los simpson y hacian una parodia de estas
Wow, de casualidad tienes las otras versiones? hay una que es muda, otra musicalizada, esta a color, otra con dialogos, una m?
Cita neoboyx: Mostrar
Siiiiiii, gracias
Para dejar un comentario Registrate! o.. eres ya usuario? Accede!