Ufo The Broadcast archives JOYA









Format                           : AVI


Format/Info                      : Audio Video Interleave


File size                        : 300 MiB


Duration                         : 31mn 17s


Overall bit rate                 : 1 341 Kbps


Writing application              : Lavf51.12.1




Video


ID                               : 0


Format                           : MPEG-4 Visual


Format profile                   : [email protected]


Format settings, BVOP            : No


Format settings, QPel            : No


Format settings, GMC             : No warppoints


Format settings, Matrix          : Default (H.263)


Codec ID                         : DX50


Codec ID/Hint                    : DivX 5


Duration                         : 31mn 17s


Bit rate                         : 1 200 Kbps


Width                            : 852 pixels


Height                           : 480 pixels


Display aspect ratio             : 16:9


Frame rate                       : 29.970 fps


Color space                      : YUV


Chroma subsampling               : 4:2:0


Bit depth                        : 8 bits


Scan type                        : Progressive


Compression mode                 : Lossy


Bits/(Pixel*Frame)               : 0.098


Stream size                      : 269 MiB (89%)


Writing library                  : Lavc51.40.4




Audio


ID                               : 1


Format                           : MPEG Audio


Format version                   : Version 1


Format profile                   : Layer 3


Mode                             : Joint stereo


Mode extension                   : MS Stereo


Codec ID                         : 55


Codec ID/Hint                    : MP3


Duration                         : 31mn 17s


Bit rate mode                    : Constant


Bit rate                         : 128 Kbps


Channel(s)                       : 2 channels


Sampling rate                    : 44.1 KHz


Compression mode                 : Lossy


Stream size                      : 28.6 MiB (10%)


Alignment                        : Aligned on interleaves


Interleave, duration             : 26 ms (0.78 video frame)


Writing library                  : LAME3.97












https://shared.com/90m7rw29ak?s=l[/size][/color]




Ufo The Broadcast archives JOYA
20 Puntos Score: 10/10
Visitas: 812 Favoritos: 2
Ver los usuarios que votaron...
4 Comentarios Ufo The Broadcast archives JOYA
Una verdadera JOYA!! mil gracias!!
@SALAGUIN7K @fonolo1914
Cita fonolo1914: Mostrar
gracias por pasar o el mitico salaguin me visito en mi post eso pasa muy rara la vez
Para dejar un comentario Registrate! o.. eres ya usuario? Accede!