facuelfacha12
"Intentare subir algo para compartir en identi."
Oops.. Este post tiene los enlaces eliminados!

Identi revisa las denuncias de los usuarios en busca de enlaces eliminados que no dejan descargar los archivos, este mensaje te informa que este post que estas viendo tiene los enlaces eliminados.

Usa el Buscador

Por favor, te recomendamos que uses el buscador para encontrar más alternativas.

Hanna [Latino][[MEGA]

  • Categoría: Reciclaje
  • Publicado hace más de 1 año

Hola bienvenido a mi post


General
Format                                   : AVI
Format/Info                              : Audio Video Interleave
File size                                : 704 MiB
Duration                                 : 1h 51mn
Overall bit rate                         : 886 Kbps
Writing application                      : VirtualDubMod 1.5.4.1 (build 2178/release)
Writing library                          : VirtualDub build 30586/release

Video
ID                                       : 0
Format                                   : MPEG-4 Visual
Format profile                           : Advanced [email protected]
Format settings, BVOP                    : 1
Format settings, QPel                    : No
Format settings, GMC                     : No warppoints
Format settings, Matrix                  : Custom
Codec ID                                 : XVID
Codec ID/Hint                            : XviD
Duration                                 : 1h 51mn
Bit rate                                 : 765 Kbps
Width                                    : 624 pixels
Height                                   : 272 pixels
Display aspect ratio                     : 2.25:1
Frame rate                               : 23.976 fps
Color space                              : YUV
Chroma subsampling                       : 4:2:0
Bit depth                                : 8 bits
Scan type                                : Progressive
Compression mode                         : Lossy
Bits/(Pixel*Frame)                       : 0.188
Stream size                              : 608 MiB (86%)
Writing library                          : XviD 1.2.1 (UTC 2008-12-04)

Audio
ID                                       : 1
Format                                   : MPEG Audio
Format version                           : Version 1
Format profile                           : Layer 3
Codec ID                                 : 55
Codec ID/Hint                            : MP3
Duration                                 : 1h 51mn
Bit rate mode                            : Constant
Bit rate                                 : 112 Kbps
Channel(s)                               : 2 channels
Sampling rate                            : 44.1 KHz
Compression mode                         : Lossy
Stream size                              : 88.9 MiB (13%)
Alignment                                : Split accross interleaves
Interleave, duration                     : 42 ms (1.00 video frame)
Interleave, preload duration             : 500 ms
Writing library                          : LAME3.98r
Encoding settings                        : -m s -V 4 -q 2 -lowpass 15.6 -b 112

PESO: 717MB

SERVIDOR: Mega

UPLOADER: facuelfacha12





Hanna (Saoirse Ronan) es una joven de 16 años que vive con su padre, Erik Heller (Eric Bana), en las salvajes tierras del norte de Finlandia. Desde que tenía dos años, Hanna ha sido entrenada por su padre para llegar a ser una perfecta asesina. Debido a lo lejos que estaban de la ciudad, Hanna nunca ha conocido la cultura ni la tecnología moderna. En su lugar, le han explicado una serie de mentiras sobre su vida que le servirán de respaldo para usarlas «cuando llegue el momento». Además, tiene un amplio conocimiento enciclopédico y habla varios idiomas.
















facuelfacha12


Cualquier link caido,error,problema Avísenme yo haré lo posible para arreglarlo

Este y Todos los juegos son probados por mi antes de subir


Ademas contiene 3% de registro de recuperacion
Hanna [Latino][[MEGA]
10 Puntos Score: 10/10
Visitas: 1723 Favoritos: 1
Ver los usuarios que votaron...
9 Comentarios Hanna [Latino][[MEGA]
@HYAKIMARU @leothrash De nada que la difruten    
Gracias, hace tiempo la buscaba.
 
links caidos  
ok amigo la estare esperando gracias !!  
@soto72 Lo siento mucho amigo pero el disco se me a roto y hay tenia las peliculas  y no la puedo resubir....Denuncia el post porfavor asi se borra
Para dejar un comentario Registrate! o.. eres ya usuario? Accede!