El mono desnudo Desmond Morris (Shared)










El animal humano : Una visión personal de la especie humana es una BBC carácter documental serie escrita y presentada por Desmond Morris , transmitido por primera vez en el Reino Unido desde el 27 de julio de 1994. La serie fue producida en asociación con Discovery Channel .


Morris lo describe como "un estudio de la conducta humana desde una perspectiva zoológica. " Viaja por todo el mundo, filmando las diversas costumbres y hábitos de las diversas regiones al tiempo que sugiere raíces comunes. Al cierre del primer episodio, Morris dijo:


A veces me han acusado de degradar a la humanidad, de insultar la dignidad humana , de hacer al hombre bestial. Esto me sorprendió porque me gustan los animales, y me siento orgulloso de decir que soy uno. Nunca he mirado abajo sobre ellos, por lo que llamar a los seres humanos los animales no es, para mí, degradantes. Se trata simplemente de ser honesto: ponernos en nuestro lugar como parte del esquema de la naturaleza en el planeta Tierra .










Episodios


1. "El lenguaje del cuerpo"
Gestos : Saludos, Insultos, señales, gestos
Expresiones faciales : Miradas, sonrisas, Dice



2. "The Hunting Ape"
Dieta: El cariño por los dulces, variedad culinaria
Evolución: el vegetarianismo arbóreo, Savannah comer carne, la caza cooperativa con armas, preparación de alimentos, hipótesis simio acuático
Comportamiento de caza vestigal: Empleo, Deporte Caza, Guerra



3. "El Zoo Humano"
Urban tribalismo : La familiaridad, Robo, Uniformes, Rituales, Conflicto, estatus social, Territorio



4. "La biología del amor" 
Cortejo: La búsqueda de socios, señales de Género, Conocimientos, signos Lazo , unión de la pareja, las relaciones sexuales



5. "Los genes inmortales"
Ciclo de vida: la interacción padres-hijo, las señales del bebé, comportamiento infantil, ritos de paso, el adoctrinamiento cultural, el envejecimiento Lucha, Abuelos, Afterlives



6. "Más allá de la supervivencia"
Creatividad: adorno corporal, adornos arquitectónicos, Vehículos, Arte
Progresión artística: garabatos Innata, Realismo
Juego: experimentación Infancia, la inventiva adultos, Deportes, en busca de emociones, el pensamiento simbólico






Format                                   : AVI
Format/Info                              : Audio Video Interleave
File size                                : 472 MiB
Duration                                 : 49mn 15s
Overall bit rate                         : 1 340 Kbps
Writing application                      : Lavf51.12.1

Video
ID                                       : 0
Format                                   : xvid
Codec ID                                 : xvid
Duration                                 : 49mn 15s
Bit rate                                 : 1 200 Kbps
Width                                    : 544 pixels
Height                                   : 408 pixels
Display aspect ratio                     : 4:3
Frame rate                               : 25.000 fps
Bits/(Pixel*Frame)                       : 0.216
Stream size                              : 423 MiB (90%)

Audio
ID                                       : 1
Format                                   : MPEG Audio
Format version                           : Version 1
Format profile                           : Layer 3
Mode                                     : Joint stereo
Mode extension                           : MS Stereo
Codec ID                                 : 55
Codec ID/Hint                            : MP3
Duration                                 : 49mn 15s
Bit rate mode                            : Constant
Bit rate                                 : 128 Kbps
Channel count                            : 2 channels
Sampling rate                            : 44.1 KHz
Compression mode                         : Lossy
Stream size                              : 45.1 MiB (10%)
Alignment                                : Aligned on interleaves
Interleave, duration                     : 26 ms (0.65 video frame)
Interleave, preload duration             : 26 ms

















El mono desnudo Desmond Morris (Shared)
30 Puntos Score: 10/10
Visitas: 1099 Favoritos: 1
Ver los usuarios que votaron...
5 Comentarios El mono desnudo Desmond Morris (Shared)
Gracias, hermano...  
Gracias Carnal!
Interesante. Muchas garcias  
Muy interesante!! muchas gracias  
Para dejar un comentario Registrate! o.. eres ya usuario? Accede!