Relatos salvajes




 
Título original : Relatos salvajes
 Año : 2014
 Duración : 119 min.
 País : Argentina
 Director : Damián Szifrón
 Guión : Damián Szifrón
 Música : Gustavo Santaolalla
 Fotografía : Javier Juliá
 Reparto : Ricardo Darín, Darío Grandinetti, Leonardo Sbaraglia, Érica Rivas, Oscar Martínez, Julieta Zylberberg, Rita Cortese, María Onetto, Osmar Núñez, Nancy Dupláa, María Marull, Germán de Silva, Marcelo Pozzi, Diego Gentile, Alan Daicz, Liliana Weimer, Claudio Delan, Lucila Mangone, Federico Liss, Walter Donado, Diego Velázquez, Margarita Molfino, César Bordón, Mónica Villa, Juan Santiago Linari
 Productora : Coproducción Argentina-España; Corner Producciones / Kramer & Sigman Films / El Deseo / Telefé / ICAA / Instituto Nacional de Cine y Artes Audiovisuales (INCAA)
 Género : Comedia. Drama | Comedia negra. Película de episodios

 

                                                         sipnosis

La película consta de seis episodios que alternan la intriga, la comedia y la violencia. Sus personajes se verán empujados hacia el abismo y hacia el innegable placer de perder el control, cruzando la delgada línea que separa la civilización de la barbarie.
 
Formato:  DVDScreener
Tamaño:  1,61 GB







                   Contraseña : nikee52

Disculpen si no pongo imagenes, pero les aseguro que la calidad es exelente

en el reproductor dice:

Tipo: AVI
Tamaño: 1,61gb
Duracion 01:56:45
Resolución: 720x304


Format                         : AVI
Format/Info                    : Audio Video Interleave
File size                      : 1.62 GiB
Duration                       : 1h 56mn
Overall bit rate               : 1 984 Kbps
Writing application            : VirtualDubMod 1.5.10.2 (build 2542/release)
Writing library                : VirtualDubMod build 2542/release

Video
ID                             : 0
Format                         : MPEG-4 Visual
Format profile                 : Advanced [email protected]
Format settings, BVOP          : 2
Format settings, QPel          : No
Format settings, GMC           : No warppoints
Format settings, Matrix        : Default (MPEG)
Codec ID                       : XVID
Codec ID/Hint                  : XviD
Duration                       : 1h 56mn
Bit rate                       : 1 654 Kbps
Width                          : 720 pixels
Height                         : 304 pixels
Display aspect ratio           : 2.35:1
Frame rate                     : 25.000 fps
Color space                    : YUV
Chroma subsampling             : 4:2:0
Bit depth                      : 8 bits
Scan type                      : Progressive
Compression mode               : Lossy
Bits/(Pixel*Frame)             : 0.302
Stream size                    : 1.35 GiB (83%)
Writing library                : XviD 1.2.1 (UTC 2008-12-04)

Audio
ID                             : 1
Format                         : MPEG Audio
Format version                 : Version 1
Format profile                 : Layer 3
Codec ID                       : 55
Codec ID/Hint                  : MP3
Duration                       : 1h 56mn
Bit rate mode                  : Constant
Bit rate                       : 320 Kbps
Channel(s)                     : 2 channels
Sampling rate                  : 44.1 KHz
Compression mode               : Lossy
Stream size                    : 267 MiB (16%)
Alignment                      : Split accross interleaves
Interleave, duration           : 40 ms (1.00 video frame)
Interleave, preload duration   : 500 ms
Relatos salvajes
20 Puntos Score: 10/10
Visitas: 2894 Favoritos: 9
Ver los usuarios que votaron...
16 Comentarios Relatos salvajes
aaaaaahhhhh me resulto muy buena esta pelicula...!! Gracias
@nikee52 con tu permiso te dejo el link de una version mejorada 1080p latino http://www.identi.li/index.php?topic=360626
vi los primeros 5 min y me re copo  
@crisk8 dale no hay problema si podes pone el link de mi post en el tuyo tambien asi tienen otra opcion
@lokurax7 gracias por comentar y aguante ALF vieja !!
"Disculpen si no pongo imagenes, pero les aseguro que la calidad es exelente" Me estas cargando? Esta filmada del cine, NUNCA se va a ver bien si es screener, ni por asomo a "buena"
@.PajaMan. jajaja capas lo que subis vzz son de cine   porlomenos tene la gentilesa de descargarlo y despues opinar saludos  
@franzsnm de nada gracias por pasar y a vzz tambien @Serafiel  
@nikee52 Yo no subi ninguna pelicula aca. No ahce falta descargarla para opinar, una pelicula filmada del cine nunca se va a ver bien
@.PajaMan. oki   tenes razon si para vzz es filmada del cine, entonces es filmada del cine  
peliculon,la acabo de terminar y la verdad que mas que recomendable. el elenco tremendo con muy buenas actuaciones (el mas flojito fue darin realmente) una m?
@nikee52 Me estas tomando del pelo??? Vos mismo pusiste en el post que es DVDScreener, eso es FILMADO DEL CINE, lo mismo para Cam, ts y demas formatos de muy baja calidad. Ni sabes lo que ofreces y me venis a decir que que equivoco...
@.PajaMan. si exactamente eso te digo  
@survivor muchas gracias por tu comentario saludos capo  
La acabo de descargar y se ve bastante bien, pasable para verla c?
@trancua gracias por el apollo  
Para dejar un comentario Registrate! o.. eres ya usuario? Accede!