Better Call Saul S01E01 1080p x265h265 HEVC WEBDL















Better Call Saul S01E01 180p x265/h265 HEVC WEB-DL 























Better Call Saul es el 'spin-off' de Breaking Bad, que servirá como precuela de la serie original situándose en 2002, seis años antes de los acontecimientos relatados en la serie de AMC. La ficción se centra en Jimmy McGuill (Bob Odenkirk), quien más tarde pasa a llamarse Saul Goodman, un abogado corrupto, con un humor políticamente incorrecto y que empieza a crear una importante red de contactos; que en el futuro le llevará a trabajar con Heisenber, el narcotraficante más temido de Nuevo México.

A McGuill le acompañarán su hermano Chuck (Michael McKean), otro abogado de éxito y máximo referente de Jimmy; Kim Wexler (Rhea Seehorn), una vieja amiga del protagonista; y Mike Ehrmantraut (Jonathan Banks), futuro hombre de confianza del abogado del que podremos conocer su pasado.

Otros actores que participan en Better Call Saul son Patrick Fabian, como el abogado Howard Hamlin; Michael Mando, que interpreta al peligroso criminal Nacho Varga; Julie Ann Emery, que será la delincuente Betsy Kettleman; y Jeremy Shamos, en el papel de Craig Kettleman, delincuente y marido de Betsy.





















General
Complete name : Better Call Saul S01E02 '' Uno '' 1080p WEB-DL X265 HEVC 466MB.mp4
Format : MPEG-4
File size : 467 MiB
Duration : 53mn 3s 503ms
Overall BitRate : 1 230 Kbps


Video

ID : 1
Format : HEVC
Format/Info : High Efficiency Video Coding
Format profile : [email protected]
Duration : 53mn 3s
Codec ID : hvc1
Bit rate : 1 135 Kbps
Width : 1 916 pixels
Height : 1 076 pixels
Display aspect ratio : 16:9
Frame rate : 23.976 fps
Frame rate mode : Constant
Stream size : 431 MiB (92%)


Audio

ID : 2
Format : MPEG Audio
Format profile : Layer 3
Codec ID : .mp3
Duration : 53mn 3s 503ms
Bit rate mode : Variable
Bit rate : 91.7 Kbps
Channel(s) : 2 channels
Sampling rate : 48.0 KHz
Compression mode : Lossy
Stream size : 34.8 MiB (7%)







































Clic en la imagen para ir al post:













Better Call Saul S01E01 1080p x265h265 HEVC WEBDL
29 Puntos Score: 7.3/10
Visitas: 9872 Favoritos: 2
Ver los usuarios que votaron...
5 Comentarios Better Call Saul S01E01 1080p x265h265 HEVC WEBDL
Vengo a figurar, gracoasss
@T.Simpsons @Leon13

Gracias
por
los
coment
y
puntos
Muchoz graciaz! +10  
Para dejar un comentario Registrate! o.. eres ya usuario? Accede!