Oops.. Este post tiene los enlaces eliminados!

Identi revisa las denuncias de los usuarios en busca de enlaces eliminados que no dejan descargar los archivos, este mensaje te informa que este post que estas viendo tiene los enlaces eliminados.

Usa el Buscador

Por favor, te recomendamos que uses el buscador para encontrar más alternativas.

Rio [DvRip 2011- Audio Microfono] Latino

  • Categoría: Reciclaje
  • Publicado hace más de 5 años
 

Rio [DvRip 2011 Audio Microfono] Latino




Rio 2011 [R5XviD][Audio Latino][1Link]|768MB

Datos de la Pelicula

Título: Rio
Título original: Rio
País: USA
Estreno en USA: 15/04/2011
Estreno en España: 08/04/2011
Productora: Blue Sky Studios, 20th Century Fox
Director: Carlos Saldanha
Guión: Don Rhymer
Reparto: (Voces de) Anne Hathaway, Jesse Eisenberg, George Lopez, Tracy Morgan, Jemaine Clement, Leslie Mann, Will.i.am, Jamie Foxx, Neil Patrick Harris, Rodrigo Santoro, Carlos Ponce, Jake T. Austin, Kate del Castillo, Bernardo de Paula.

Info. Codificacion

General
Formato: AVI
Formato / Info: Audio Video Interleave
Tamaño del archivo: 768 MiB de
Duración: 1h 23mn
Tasa de bits total: 1 294 Kbps
Aplicación de la escritura: VirtualDubMod 1.5.10.2 (build 2540/release )
Escribir la colección: VirtualDubMod construir 2540/release

Video
ID: 0
Formato: MPEG ? 4 Visual
Formato del perfil: Advanced Simple @ L5
Ajustes del formato, BVOP: Sí
La configuración del formato, Qpel: No
La configuración del formato, GMC: No warppoints
La configuración del formato, Matrix: Default ( H.263 )
Modo Muxing: flujo de bits de pic nic
ID Códec: XVID
ID Codec / Pista: XviD
Duración: 1h 23mn
Velocidad de grabación: 1 060 Kbps
Ancho: 720 pixeles
Altura: 304 píxeles
Mostrar la relación de aspecto: 2.35:1
Velocidad de cuadros: 25.000 fps
Espacio de color: YUV
Submuestreo Chroma: 4:2:0
La profundidad de bits: 8 bits
Tipo de exploración: Progresivo
Bits / ( Pixel * cuadro ): 0.194
Stream size: 629 MiB ( 82 % )
La colección de la escritura: XviD 58

Audio
ID: 1
Formato: AC- 3
Formato / Info: Audio Coding 3
Extensión modo: CM ( completo principal )
Codec ID: 2000
Duración: 1h 22mn
Poco el modo de tasa: Constante
Velocidad de bits: 224 Kbps
Canal ( s ): 2 canales
Canal posiciones: Frontal: L R
Frecuencia de muestreo: 48,0 KHz
Retraso de vídeo: 500 ms 1s
Stream size: 133 MiB ( 17% )
Alineación: Dividir a través de interpolaciones
Intercalar, duración: 40 ms ( 1,00 fotograma de vídeo )
Intercalar, precarga duración: 500 ms

Ambientada en la ciudad brasileña de Rio de Janeiro durante su mayor y más popular fiesta: El Carnaval. Blu es un pájaro de la especie de los guacamayos que ha crecido en un pequeño pueblo de Minnesota en EEUU, un buen día se entera que es el último espécimen macho de su especie. Es entonces cuando Blu y su dueña, compañera y protectora Linda, deciden tomar rumbo a RIO para conocer a Tulio, un excéntrico experto en pájaros, y a Perla, que es un guacamayo hembra en Rio de Janeiro.

Pero las cosas no salen todo lo bien que hubieran deseado. Mientras Blu y Perla se están conociendo, unos traficantes de pájaros entran en el laboratorio de Tulio y los secuestran. Teniendo como telón de fondo el animado y colorido carnaval de RIO, esta dispar pareja de guacamayos se verá obligada a permanecer juntos y trabajar en equipo para conseguir recuperar su libertad. Blu y Perla emprenderán juntos una maravillosa aventura en la que harán nuevos amigos, se reirán, se divertirán y hasta llegaran a conocerse el uno al otro.




www.identi.es




Rio [DvRip 2011- Audio Microfono] Latino
50 Puntos Score: 7.1/10
Visitas: 4645 Favoritos: 4
Ver los usuarios que votaron...
1 Comentarios Rio [DvRip 2011- Audio Microfono] Latino
Muchas gracias animo sigue asi!
Para dejar un comentario Registrate! o.. eres ya usuario? Accede!