Drive Angry (2011) PPVRIP - IFLIX

Drive Angry (2011) PPVRIP - IFLIX



Sinopsis: Milton (Nicolas Cage) es un criminal que salió del infierno con una última oportunidad de redención. Se pondrá tras la busca de un maléfico grupo que acabó con la vida de su hija. Tiene tres días para detenerlos antes de que se produzca el sacrificio de un bebé bajo la luz de la luna llena. En su odisea estará acompañado por Piper (Amber Heard) una joven y sexy camarera. Ahora los dos están tras la pista del líder del grupo, Jonah King (Billy Burke), quien se cree un elegido para desatar el infierno en la Tierra.

Drive Angry 2011 PPVRIP IFLIX

Language               : English
Format/Info              : Audio Video Interleave
Format profile             : OpenDML
File size                : 1.23 GiB
Duration               : 1h 43mn
Overall bit rate           : 1 696 Kbps

Video
ID                   : 0
Format                 : MPEG-4 Visual
Format profile             : [email protected]
Format settings, BVOP        : No
Format settings, QPel        : No
Format settings, GMC         : No warppoints
Format settings, Matrix      : Default (H.263)
Codec ID               : XVID
Codec ID/Hint            : XviD
Duration               : 1h 43mn
Bit rate               : 1 550 Kbps
Width                  : 720 pixels
Height                 : 480 pixels
Display aspect ratio         : 1.500
Frame rate               : 29.970 fps
Original frame rate          : 29.000 fps
Standard               : NTSC
Resolution               : 24 bits
Colorimetry              : 4:2:0
Scan type                : Progressive
Bits/(Pixel*Frame)         : 0.150
Stream size              : 1.12 GiB (91%)
Writing library            : XviD 1.2.1 (UTC 2008-12-04)

Audio
ID                   : 1
Format                 : MPEG Audio
Format version             : Version 1
Format profile             : Layer 3
Format_Settings_Mode         : Joint stereo / MS Stereo
Codec ID               : 55
Codec ID/Hint            : MP3
Duration               : 1h 43mn
Bit rate mode            : Constant
Bit rate               : 128 Kbps
Channel(s)               : 2 channels
Sampling rate            : 44.1 KHz
Resolution               : 16 bits
Stream size              : 94.9 MiB (8%)
Alignment                : Aligned on interleaves
Interleave, duration         : 26 ms (0.78 video frame)
Writing library            : LAME3.98.2

Release notes...

Another quality release from IFLIX
More to come very soon!

Video source: Ours
Audio source: Ours

Greetings to all other groups out there. You all do awesome work and we greatly appreciate it.
IFLIX :-)







i-max.vn
Drive Angry (2011) PPVRIP - IFLIX
9 Puntos Score: 4.5/10
Visitas: 1659 Favoritos: 2
Ver los usuarios que votaron...
0 Comentarios Drive Angry (2011) PPVRIP - IFLIX
Este post no tiene comentarios. Sea el primero!
Para dejar un comentario Registrate! o.. eres ya usuario? Accede!