Justin Bieber Never Say Never [English] [DvDrip]

Justin Bieber Never Say Never



Ficha técnica:

Título: Justin Bieber: Nunca dijas Nuca
Título original: Justin Bieber: Never Say Never
Dirección: Jon M. Chu
País: Estados Unidos
Año: 2011
Fecha de estreno: 15/04/2011
Género: Documental, Música, Biografic
Reparto: Miley Cyrus, Jaden Smith, Justin Bieber, Shawn Stockman, Wanya Morris, Nathan Morris
Distribuidora: Paramount Pictures
Language: English (sin subtitulos)

Sinópsis:

Never Say Never es el título de la primera película biográfica de Justin Bieber, en donde se cuenta su historia desde cuando era un niño aficionado a la música, pasando por su descubrimiento y las relaciones con las personas que lo ayudaron en su carrera, con quienes el joven cantante tiene contacto hasta el día de hoy, tal es el caso de su mentor el cantante de rap, Usher.

Trailer:



MediaInfo:

Format                 : AVI
Format/Info              : Audio Video Interleave
File size                : 700 MiB
Duration               : 1h 45mn
Overall bit rate           : 931 Kbps
Writing application          : VirtualDubMod 1.5.10.2 (build 2540/release)
Writing library            : VirtualDubMod build 2540/release

Video
ID                   : 0
Format                 : MPEG-4 Visual
Format profile             : Advanced [email protected]
Format settings, BVOP        : 1
Format settings, QPel        : No
Format settings, GMC         : No warppoints
Format settings, Matrix      : Default (MPEG)
Codec ID               : XVID
Codec ID/Hint            : XviD
Duration               : 1h 45mn
Bit rate               : 789 Kbps
Width                  : 624 pixels
Height                 : 352 pixels
Display aspect ratio         : 16:9
Frame rate               : 23.976 fps
Color space              : YUV
Chroma subsampling         : 4:2:0
Bit depth                : 8 bits
Scan type                : Progressive
Compression mode           : Lossy
Bits/(Pixel*Frame)         : 0.150
Stream size              : 593 MiB (85%)
Writing library            : XviD 1.2.1 (UTC 2008-12-04)

Audio
ID                   : 1
Format                 : MPEG Audio
Format version             : Version 1
Format profile             : Layer 3
Mode                   : Joint stereo
Mode extension             : MS Stereo
Codec ID               : 55
Codec ID/Hint            : MP3
Duration               : 1h 45mn
Bit rate mode            : Variable
Bit rate               : 128 Kbps
Channel(s)               : 2 channels
Sampling rate            : 48.0 KHz
Compression mode           : Lossy
Stream size              : 96.6 MiB (14%)
Alignment                : Aligned on interleaves
Interleave, duration         : 24 ms (0.58 video frame)
Interleave, preload duration   : 143 ms
Writing library            : LAME3.90.
Encoding settings          : -m j -V 4 -q 2 -lowpass 17.6 --abr 128

Capturas propias:











Descargar:

http://www.mediafire.com/?4pe26yaqasrb6d4
http://www.mediafire.com/?i8ai79gkcgfq2t0
http://www.mediafire.com/?sl965abp73hqush
http://www.mediafire.com/?88887knv9ap69bp
Justin Bieber Never Say Never [English] [DvDrip]
18 Puntos Score: 6/10
Visitas: 2207 Favoritos: 0
Ver los usuarios que votaron...
0 Comentarios Justin Bieber Never Say Never [English] [DvDrip]
Este post no tiene comentarios. Sea el primero!
Para dejar un comentario Registrate! o.. eres ya usuario? Accede!