El Inmortal (DVDrip Espa?ol Latino - 2010)


 

[COLOR=#NaNNaNNaN]Producción de Luc Besson para esta peli inspirada en hechos reales y basado en la novela El Inmortal de Franz-Olivier Giesbert sobre la historia del gangster masellés Jacques Imbert y su conflicto con otro llamado Tany Zampa. En uno de sus ultimísimos trabajso para el cine, Jean Renos es Charly Matteï, un antiguo miembro de la mafia marsellesa retirado que lleva 3 años viviendo una placida vida dedicado a su mujer y a sus hijos. Una mañana, unos hombres le atacan y es dado por muerto después de recibir 22 balas. Pero sobrevivirá milagrosamente y buscará a Tony Zacchia, el único hombre capaz de atreverse a matarlo. Tony ha cometido solo un error, fallar en su intento.[/COLOR]
[COLOR=#NaNNaNNaN][/COLOR]
[COLOR=#NaNNaNNaN]General
Complete name            : El inmortal
Format                 : RealMedia
File size                : 487 MiB
Duration               : 1h 57mn
Overall bit rate           : 567 Kbps
Movie name               : El Inmortal
[/COLOR]
[COLOR=#NaNNaNNaN]Video
ID                   : 1
Format                 : RealVideo 4
Codec ID               : RV40
Codec ID/Info            : Based on AVC (H.264), Real Player 9
Duration               : 1h 57mn
Bit rate               : 375 Kbps
Width                  : 720 pixels
Height                 : 480 pixels
Display aspect ratio         : 3:2
Frame rate               : 30.000 fps
Standard               : NTSC
Bits/(Pixel*Frame)         : 0.036
Stream size              : 314 MiB (65%)
[/COLOR]
[COLOR=#NaNNaNNaN]Audio
ID                   : 0
Format                 : AAC
Format/Info              : Advanced Audio Codec
Codec ID               : raac
Codec ID/Info            : Real Player 9
Duration               : 1h 57mn
Bit rate               : 192 Kbps
Channel(s)               : 2 channels
Sampling rate            : 44.1 KHz
Bit depth                : 16 bits
Stream size              : 161 MiB (33%)
[/COLOR]
[COLOR=#NaNNaNNaN][/COLOR]
[COLOR=#NaNNaNNaN]Idioma: Español
Tamaño: 486 MB
Nº Links : (5)
Formato:  rmvb
Calidad de imagen:Excelente [COLOR=#NaNNaNNaN]DVDRip

[/COLOR]
[/COLOR]

 

 

Descarga
El Inmortal (DVDrip Espa?ol Latino - 2010)
5 Puntos Score: 5/10
Visitas: 2673 Favoritos: 2
Ver los usuarios que votaron...
2 Comentarios El Inmortal (DVDrip Espa?ol Latino - 2010)
Me tira error al querer descomprimir!!
Para dejar un comentario Registrate! o.. eres ya usuario? Accede!