Rápida y mortal Sharon Stone Audio latino



Rápida y mortal (The Quick and the Dead) es un clásico western del año 1995, dirigido por Sam Raimi. Cuenta con las interpretaciones de Sharon Stone, Gene Hackman, Russell Crowe y Leonardo DiCaprio. El guion fue escrito por Simon Moore.
Una misteriosa y bella forastera, Ellen (Sharon Stone), aparece en una pequeña ciudad del Oeste americano, y se inscribe como participante en una peligrosa competición. En ella, pistoleros de todas partes arriesgan sus vidas a cambio de fama y fortuna. Los motivos que en realidad mueven a Ellen van mucho más allá... busca vengarse de John Herod (Gene Hackman), un hombre ambicioso y sin escrúpulos que domina la ciudad, por algo que tiempo atrás le hizo a su familia...




Video
ID                                       : 1
Format                                   : AVC
Format/Info                              : Advanced Video Codec
Format profile                           : [email protected]
Format settings, CABAC                   : Yes
Format settings, ReFrames                : 4 frames
Codec ID                                 : V_MPEG4/ISO/AVC
Duration                                 : 1h 45mn
Bit rate mode                            : Constant
Bit rate                                 : 1 600 Kbps
Width                                    : 852 pixels
Height                                   : 480 pixels
Display aspect ratio                     : 16:9
Original display aspect ratio            : 16:9
Frame rate mode                          : Constant
Frame rate                               : 23.976 fps
Color space                              : YUV
Chroma subsampling                       : 4:2:0
Bit depth                                : 8 bits
Scan type                                : Progressive
Bits/(Pixel*Frame)                       : 0.163
Stream size                              : 1.15 GiB (87%)
Default                                  : Yes
Forced                                   : No

Audio
ID                                       : 2
Format                                   : AC-3
Format/Info                              : Audio Coding 3
Format profile                           : Dolby Digital
Mode extension                           : CM (complete main)
Format settings, Endianness              : Big
Codec ID                                 : A_AC3
Duration                                 : 1h 45mn
Bit rate mode                            : Constant
Bit rate                                 : 192 Kbps
Channel(s)                               : 2 channels
Channel positions                        : Front: L R
Sampling rate                            : 48.0 KHz
Bit depth                                : 16 bits
Compression mode                         : Lossy
Delay relative to video                  : 667ms
Stream size                              : 144 MiB (11%)
Language                                 : Latin
Default                                  : Yes
Forced                                   : No




Rápida y mortal Sharon Stone Audio latino
75 Puntos Score: 8.3/10
Visitas: 3393 Favoritos: 8
Ver los usuarios que votaron...
11 Comentarios Rápida y mortal Sharon Stone Audio latino
descargando gracias por el aporte  
gracias gentita tendras la peli 4 mujeres y un destino esa tambien es buena de vaqueras
Excelente Aporte +10
de ley que es buena
Muchas gracias!
Graciassssssss  
Cita xxxjad: Mostrar
me acuerdo de esta y de esa: yo tambien la ando buscando...
Muy buen aporte.Gracias
Tiene mucho que la vi..
No me la llevo pero gracias por compartir, te dejo unos puntitos  
Muchas gracias por compartir.  
Para dejar un comentario Registrate! o.. eres ya usuario? Accede!