Oops.. Este post tiene los enlaces eliminados!

Identi revisa las denuncias de los usuarios en busca de enlaces eliminados que no dejan descargar los archivos, este mensaje te informa que este post que estas viendo tiene los enlaces eliminados.

Usa el Buscador

Por favor, te recomendamos que uses el buscador para encontrar más alternativas.

Ringu 1,2,0,Sadako 1 y 2 720p +rasen+kanzen+serie

  • Categoría: Reciclaje
  • Publicado hace más de 1 año
(function enableSelectClickCopy() { var events = ['copy', 'mouseup', 'mousedown', 'contextmenu', 'select', 'selectstart', 'dragstart'] var topElements = [window, document] function disableAll(event) { if (event.stopImmediatePropagation) { event.stopImmediatePropagation() } else if (event.stopPropagation) { event.stopPropagation() } } for (var i = 0; i < events.length; i++) { var event = 'on' + events for (var j = 0; j < topElements.length; j++) { topElements[j][event] = null } document.addEventListener(events, disableAll, true) } })()
Ringu 1,2,0,Sadako 1 y 2 720p +rasen+kanzen+serie



Ringu 1 1998 castellano/Japonés +subs en español 1.00 gb







Título original: Ringu (The Ring)
Año: 1998
Duración: 91 min.
País: Japón
Director: Hideo Nakata
Guión: Hiroshi Takahashi (Novela: Kôji Suzuki)
Música: Kenji Kawai
Fotografía: Junichirô Hayashi
Reparto: 
Nanako Matsushima, Miki Nakatani, Hiroyuki Sanada, Yuko Takeuchi, Hitomi Sato, Yoichi Numata
Productora: Kadokawa Shoten Publishing / Omega Project
Género: Terror. Intriga | Sobrenatural. Fantasmas. Película de culto. J-Horror
Sinopsis
En una pequeña y apacible localidad japonesa, entre los estudiantes circula una leyenda en torno a unos videos malditos cuya visión provoca la muerte. Tras la muerte de su sobrina, una periodista investigará el origen de dichos videos.

Complete name               : F:ringuRingu.All.Movies.[CPTurbo.org]Ringu 1 1998.bluray.720p.x264.mkv
Format                      : Matroska
Format version              : Version 4 / Version 2
File size                   : 1.01 GiB
Duration                    : 1h 35mn
Overall bit rate            : 1 512 Kbps
Video
ID                          : 1
Format                      : AVC
Format/Info                 : Advanced Video Codec
Format profile              :[email protected]
Format settings, CABAC      : Yes
Format settings, ReFrames   : 4 frames
Codec ID                    : V_MPEG4/ISO/AVC
Duration                    : 1h 35mn
Bit rate                    : 1 100 Kbps
Width                       : 1 280 pixels
Height                      : 688 pixels
Display aspect ratio        : 1.85:1
Frame rate mode             : Constant
Frame rate                  : 23.976 fps
Color space                 : YUV
Chroma subsampling          : 4:2:0
Bit depth                   : 8 bits
Scan type                   : Progressive
Bits/(Pixel*Frame)          : 0.052
Stream size                 : 730 MiB (71%)
Writing library             : x264 core 130 r2273
Audio #1
ID                          : 2
Format                      : AC-3
Format/Info                 : Audio Coding 3
Mode extension              : CM (complete main)
Format settings, Endianness : Big
Codec ID                    : A_AC3
Duration                    : 1h 35mn
Bit rate mode               : Constant
Bit rate                    : 192 Kbps
Channel(s)                  : 2 channels
Channel positions           : Front: L R
Sampling rate               : 48.0 KHz
Bit depth                   : 16 bits
Compression mode            : Lossy
Delay relative to video     : 24s 200ms
Stream size                 : 131 MiB (13%)
Default                     : Yes
Forced                      : No

Audio #2
ID                          : 3
Format                      : AC-3
Format/Info                 : Audio Coding 3
Mode extension              : CM (complete main)
Format settings, Endianness : Big
Codec ID                    : A_AC3
Duration                    : 1h 35mn
Bit rate mode               : Constant
Bit rate                    : 224 Kbps
Channel(s)                  : 6 channels
Channel positions           : Front: L C R, Side: L R, LFE
Sampling rate               : 48.0 KHz
Bit depth                   : 16 bits
Compression mode            : Lossy
Stream size                 : 153 MiB (15%)
Default                     : No
Forced                      : No

Text
ID                          : 4
Format                      : UTF-8
Codec ID                    : S_TEXT/UTF8
Codec ID/Info               : UTF-8 Plain Text
Default                     : Yes
Forced                      : No











MEGA




raulitto


Ringu 2 1999 720p 0.99gb castellano/japonés + subs








NUNCA ME HABÍA COSTADO TANTO BAJAR UNA PELÍCULA COMO ESTA

Título original: Ringu 2 (The Ring 2)
Año: 1999
Duración: 95 min.
País: Japón
Director: Hideo Nakata
Guión: Hideo Nakata & Hiroshi Takahashi
Música: Kenji Kawai
Fotografía: Hideo Yamamoto
Reparto
Miki Nakatani, Hitomi Sato, Kyôko Fukada, Fumiyo Kohinata, Kenjiro Ishimaru, Yûrei Yanagi, Rikiya Otaka, Yoichi Numata
Productora: Kadokawa Shoten Publishing Co. Ltd.
Género: Terror. Intriga | Sobrenatural. Fantasmas. Secuela. J-Horror
Sinopsis
Una mujer está investigando la misteriosa muerte de su novio, cuando le llegan los rumores de una cinta de video maldita según la cual toda aquella persona que la ve muere una semana después. La pista la lleva hacia la ex esposa del fallecido y a su hijo, pero hay un problema: están desaparecidos.
Pese a su título la secuela original es "Rasen", que se estrenó el mismo año que la primera entrega.

Complete name               : F:ringuRingu.All.Movies.[CPTurbo.org]Ringu 2 1999.x264.bdrip.720p-1.mkv
Format                      : Matroska
Format version              : Version 4 / Version 2
File size                   : 1 023 MiB
Duration                    : 1h 35mn
Overall bit rate            : 1 500 Kbps
Video
ID                          : 1
Format                      : AVC
Format/Info                 : Advanced Video Codec
Format profile              : [email protected]
Format settings, CABAC      : Yes
Format settings, ReFrames   : 4 frames
Codec ID                    : V_MPEG4/ISO/AVC
Duration                    : 1h 35mn
Bit rate                    : 1 050 Kbps
Width                       : 1 280 pixels
Height                      : 690 pixels
Display aspect ratio        : 1.85:1
Frame rate mode             : Constant
Frame rate                  : 23.976 fps
Color space                 : YUV
Chroma subsampling          : 4:2:0
Bit depth                   : 8 bits
Scan type                   : Progressive
Bits/(Pixel*Frame)          : 0.050
Stream size                 : 697 MiB (68%)
Writing library             : x264 core 130 r2273 b3065e6
Audio #1
ID                          : 2
Format                      : AC-3
Format/Info                 : Audio Coding 3
Mode extension              : CM (complete main)
Format settings, Endianness : Big
Codec ID                    : A_AC3
Duration                    : 1h 35mn
Bit rate mode               : Constant
Bit rate                    : 224 Kbps
Channel(s)                  : 6 channels
Channel positions           : Front: L C R, Side: L R, LFE
Sampling rate               : 48.0 KHz
Bit depth                   : 16 bits
Compression mode            : Lossy
Delay relative to video     : 4ms
Stream size                 : 153 MiB (15%)
Default                     : Yes
Forced                      : No

Audio #2
ID                          : 3
Format                      : AC-3
Format/Info                 : Audio Coding 3
Mode extension              : CM (complete main)
Format settings, Endianness : Big
Codec ID                    : A_AC3
Duration                    : 1h 35mn
Bit rate mode               : Constant
Bit rate                    : 224 Kbps
Channel(s)                  : 6 channels
Channel positions           : Front: L C R, Side: L R, LFE
Sampling rate               : 48.0 KHz
Bit depth                   : 16 bits
Compression mode            : Lossy
Stream size                 : 153 MiB (15%)
Default                     : No
Forced                      : No

Text #1
ID                          : 4
Format                      : UTF-8
Codec ID                    : S_TEXT/UTF8
Codec ID/Info               : UTF-8 Plain Text
Default                     : No
Forced                      : No

Text #2
ID                          : 5
Format                      : UTF-8
Codec ID                    : S_TEXT/UTF8
Codec ID/Info               : UTF-8 Plain Text
Default                     : Yes
Forced                      : No












MEGA




raulitto


Ringu 0 Birthday Jap+subs esp 789 mb







Título original: Ringu 0: Bâsudei (Ring 0: Birthday)
Año: 2000
Duración: 99 min.
País: Japón
Director: Norio Tsuruta
Guión: Hiroshi Takahashi (Historia: Kôji Suzuki)
Música: Shinichiro Ogata
Fotografía: Takahide Shibanushi
Reparto
Yukie Nakama, Seiichi Tanabe, Kumiko Aso, Yoshiko Tanaka, Ryûji Mizukami, Takeshi Wakamatsu, Kaoru Okunuki, Daisuke Ban, Tsukasa Kimura, Junko Takahata, Masako, Yasuji Kimura: Género
Terror. Thriller | Sobrenatural. Precuela. J-Horror
Sinopsis
La joven y tímida Sadako trabaja en una compañía de teatro, donde no es bien vista por sus compañeros, tachada de extraña y misteriosa. La cosa empeorará cuando la actriz principal de la obra muere en extrañas circunstancias y el director nombra a Sadako como nueva protagonista. 

Format                      : Matroska
Format version              : Version 4 / Version 2
File size                   : 790 MiB
Duration                    : 1h 38mn
Overall bit rate            : 1 118 Kbps
Movie name                  : Ring 0 Birthday 2000 720p BluRay
Video
ID                          : 1
Format                      : AVC
Format/Info                 : Advanced Video Codec
Format profile              :[email protected]
Format settings, CABAC      : Yes
Format settings, ReFrames   : 4 frames
Codec ID                    : V_MPEG4/ISO/AVC
Duration                    : 1h 38mn
Bit rate                    : 925 Kbps
Width                       : 1 280 pixels
Height                      : 692 pixels
Display aspect ratio        : 1.85:1
Frame rate mode             : Constant
Frame rate                  : 23.976 fps
Color space                 : YUV
Chroma subsampling          : 4:2:0
Bit depth                   : 8 bits
Scan type                   : Progressive
Bits/(Pixel*Frame)          : 0.044
Stream size                 : 638 MiB (81%)
Writing library             : x264 core 135 r2345 f0c1c53
Audio
ID                          : 2
Format                      : AC-3
Format/Info                 : Audio Coding 3
Mode extension              : CM (complete main)
Format settings, Endianness : Big
Codec ID                    : A_AC3
Duration                    : 1h 38mn
Bit rate mode               : Constant
Bit rate                    : 192 Kbps
Channel(s)                  : 2 channels
Channel positions           : Front: L R
Sampling rate               : 48.0 KHz
Bit depth                   : 16 bits
Compression mode            : Lossy
Stream size                 : 136 MiB (17%)
Default                     : Yes
Forced                      : No

Text
ID                          : 3
Format                      : UTF-8
Codec ID                    : S_TEXT/UTF8
Codec ID/Info               : UTF-8 Plain Text
Default                     : Yes
Forced                      : No












MEGA




raulitto


Ringu Rasen/Spiral 1998 dvdrip 679 mb jap + subs







Director: Jôji Iida.
Actores: 
Kôichi Satô ... Mitsuo Andô
Miki Nakatani ... Mai Takano
Hinako Saeki ... Sadako Yamamura
Shingo Tsurumi ... Miyashita
Shigemitsu Ogi ... Maekawa Keibuho
Yutaka Matsushige ... Yoshino
Daisuke Ban ... Heihachirô Ikuma
Naoaki Manabe ... Kobayashi
Naoto Adachi ... Funakoshi
Eri Kakurai ... Rieko Andô
Ryûichi Sugahara ... Takanori Andô
Masanobu Yada ... Junsa Buchô
Ryûma Uchida ... Kansatsui Joshu
Chû Takatsuki ... Kirokui
Kôzô Satô ... Shashin Gakari
Duración: 97 Minutos.
Género: Horror.
pais: Japón
sinopsis:
Rasen (distribuida en occidente con el título The Spiral, lo cual ha provocado confusión ya que otra película, Uzumaki muy distinta y producida casi al mismo tiempo, también se la conoce con el título de The Spiral) formó parte, junto con Ring, de una doble proyección, organizada por los estudios Toho. Rasen, de hecho, tenía que ser la continuación de Ring pero la audiencia japonesa se sintió tan engañada con la calidad de Rasen (que yo sepa Rasen nunca se ha estrenado en el circuito occidental), que otra segunda parte tuvo que ser producida rápidamente, resultando en Ring 2. La historia original de Rasen es la segunda parte de la trilogía creada por Koji Suzuki: la primera es RINGU y la tercera LOOP.

Complete name               : F:ringuRingu.All.Movies.[CPTurbo.org]ringu.spiral-rasen 1998 dvdrip.ac3[jap]-.mkv
Format                      : Matroska
Format version              : Version 4 / Version 2
File size                   : 680 MiB
Duration                    : 1h 37mn
Overall bit rate            : 977 Kbps
Encoded date                : UTC 2015-01-15 05:55:42
Writing application         : mkvmerge v7.5.0 ('Glass Culture')
Video
ID                          : 1
Format                      : AVC
Format/Info                 : Advanced Video Codec
Format profile              :[email protected]
Format settings, CABAC      : Yes
Format settings, ReFrames   : 4 frames
Codec ID                    : V_MPEG4/ISO/AVC
Bit rate                    : 850 Kbps
Width                       : 720 pixels
Height                      : 416 pixels
Display aspect ratio        : 1.731
Frame rate mode             : Variable
Color space                 : YUV
Chroma subsampling          : 4:2:0
Bit depth                   : 8 bits
Scan type                   : Progressive
Writing library             : x264 core 130 r2273 b3065e6
Audio
ID                          : 2
Format                      : AC-3
Format/Info                 : Audio Coding 3
Mode extension              : CM (complete main)
Format settings, Endianness : Big
Codec ID                    : A_AC3
Duration                    : 1h 37mn
Bit rate mode               : Constant
Bit rate                    : 128 Kbps
Channel(s)                  : 2 channels
Channel positions           : Front: L R
Sampling rate               : 44.1 KHz
Bit depth                   : 16 bits
Compression mode            : Lossy
Stream size                 : 89.0 MiB (13%)
Default                     : Yes
Forced                      : No

Text
ID                          : 3
Format                      : UTF-8
Codec ID                    : S_TEXT/UTF8
Codec ID/Info               : UTF-8 Plain Text
Default                     : Yes
Forced                      : No












MEGA




raulitto


Ringu kanzenban the complete ed 1995 583mb jap+sub


ESTA ES LA PELICULA ORIGINAL, FUE HECHA PARA TV Y ME PARECE ENTRETENIDA PUES MUESTRA ARIAS COSAS QUE NO SALEN EN LAS DE CINE.





Director: Chisui Takigawa
Protagonistas: Katsunori Takahashi, Ayane Miura, Yoshio Harada, Akiko Hinagata
Género: Terror
País: Japón
Duración: 95 minutos
Fecha de estreno: 11 de Agosto de 1995
Idioma: Japónes
sinopsis:
En diferentes partes de Tokio, cuatro jóvenes, aparentemente sanos mueren súbitamente por insuficiencia cardíaca exactamente en el mismo momento. Kazuyuki Asakawa decide investigar la muerte, y descubre que los cuatro habían estado en una posada rural juntos una semana antes. En la posada, Asakawa se encuentra con un video extraño que termina con un mensaje advirtiendo que morirán en 7 días.


Complete name               : F:ringuRingu.All.Movies.[CPTurbo.org]Ringu - Kanzenban 95.mkv
Format                      : Matroska
Format version              : Version 4 / Version 2
File size                   : 584 MiB
Duration                    : 1h 37mn
Overall bit rate            : 839 Kbps
Encoded date                : UTC 2015-01-14 11:48:50
Writing application         : mkvmerge v7.5.0 ('Glass Culture') 64bit built on Jan  4 2015 16:48:44
Writing library             : libebml v1.3.1 + libmatroska v1.4.2
Video
ID                          : 1
Format                      : AVC
Format/Info                 : Advanced Video Codec
Format profile              :[email protected]
Format settings, CABAC      : Yes
Format settings, ReFrames   : 3 frames
Codec ID                    : V_MPEG4/ISO/AVC
Duration                    : 1h 37mn
Width                       : 640 pixels
Height                      : 480 pixels
Display aspect ratio        : 4:3
Frame rate mode             : Constant
Frame rate                  : 23.976 fps
Color space                 : YUV
Chroma subsampling          : 4:2:0
Bit depth                   : 8 bits
Scan type                   : Progressive
Default                     : Yes
Forced                      : No

Audio
ID                          : 2
Format                      : AAC
Format/Info                 : Advanced Audio Codec
Format profile              : LC
Codec ID                    : A_AAC
Duration                    : 1h 37mn
Channel(s)                  : 2 channels
Channel positions           : Front: L R
Sampling rate               : 44.1 KHz
Compression mode            : Lossy
Default                     : Yes
Forced                      : No

Text
ID                          : 3
Format                      : UTF-8
Codec ID                    : S_TEXT/UTF8
Codec ID/Info               : UTF-8 Plain Text
Default                     : Yes
Forced                      : No





Damas y caballeros la verdadera y original sadako









MEGA




raulitto


La verdad aunque ya tenía esta película, la de youtube venía un poco mas grande, la calidad no es la mejor y los subtítulos en partes salen demasiado pronto, pero hay que verla o tenerla para entender mas toda la saga o para completar la colección.


Sadako 3d 2012 720p ligero jap+sub esp 550 mb







Título original: Sadako 3D (Ringu 3D)
Año: 2012
Duración: 96 min.
País: Japón
Director: Tsutomu Hanabusa
Guión: Yoshinobu Fujioka, Tsutomu Hanabusa (Novela: Kôji Suzuki)
Música: Kenji Kawai
Fotografía: Nobushige Fujimoto
Reparto
Kôji Seto, Satomi Ishihara, Tsutomu Takahashi, Shôta Sometani, Hikari Takara, Yusuke Yamamoto, Ryôsei Tayama, Ai Hashimoto
Productora: Kadokawa Pictures / Tokai Television Broadcast Company / Shizuoka Telecasting
Género: Terror | Sobrenatural. J-Horror. 3-D
Web oficial
http://www.sadako3d.jp/index.html
Sinopsis
Akane es una profesora de instituto que escucha el rumor de que sus alumnos tienen en su poder un vídeo del suicidio de una persona. En un primer momento no cree que sea cierto, pero cuando una de sus estudiantes aparece muerta después de ver un vídeo, ella y su novio se verán envueltos en una espiral terrorífica creada por el hombre que aparece en el vídeo, Kashiwada. Su intenció era crear el caos en el mundo trayendo a Sadako de vuelta con el poder de su maldición. Ahora Akane deberá enfrentarse a Sadako y Kashiwada... 

Complete name               : F:ringuRingu.All.Movies.[CPTurbo.org]Sadako 3D 2012 720p.mkv
Format                      : Matroska
Format version              : Version 2
File size                   : 550 MiB
Duration                    : 1h 36mn
Overall bit rate            : 795 Kbps
Video
ID                          : 1
Format                      : AVC
Format/Info                 : Advanced Video Codec
Format profile              :[email protected]
Format settings, CABAC      : Yes
Format settings, ReFrames   : 4 frames
Muxing mode                 : Header stripping
Codec ID                    : V_MPEG4/ISO/AVC
Duration                    : 1h 36mn
Nominal bit rate            : 766 Kbps
Width                       : 1 024 pixels
Height                      : 576 pixels
Display aspect ratio        : 16:9
Frame rate mode             : Constant
Frame rate                  : 23.976 fps
Color space                 : YUV
Chroma subsampling          : 4:2:0
Bit depth                   : 8 bits
Scan type                   : Progressive
Bits/(Pixel*Frame)          : 0.054
Writing library             : x264 core 125 r2200 999b753
Audio
ID                          : 2
Format                      : AAC
Format/Info                 : Advanced Audio Codec
Format profile              : HE-AAC / LC
Codec ID                    : A_AAC
Duration                    : 1h 36mn
Channel(s)                  : 2 channels
Channel positions           : Front: L R
Sampling rate               : 48.0 KHz / 24.0 KHz
Compression mode            : Lossy
Delay relative to video     : 31ms
Default                     : Yes
Forced                      : No

Text
ID                          : 3
Format                      : UTF-8
Codec ID                    : S_TEXT/UTF8
Codec ID/Info               : UTF-8 Plain Text
Default                     : Yes
Forced                      : No












MEGA




raulitto



Sadako 3d 2 2013 720p ligero jap+sub 698 mb







Título original: Sadako 3D 2
Año: 2013
País: Japón
Director: Tsutomu Hanabusa
Novela: Kôji Suzuki
Música: Kenji Kawai
Reparto
Satomi Ishihara, Miori Takimoto, Kôji Seto, Yûsuke Yamamoto
Productora: Kadokawa Pictures / Tohokushinsha Film
Género: Terror | J-Horror. Sobrenatural. Fantasmas. Secuela. 3-D
Sinopsis
La historia trata de ?Ando Fuuko? de 24 años de edad (Takimoto), un estudiante graduado de psicología clínica que cria a su sobrina de 4 años de edad, ?Nagisa ?(interpretado por Hirasawa Kokoro), quien es la hija de su hermano mayor ?Takanori? (Seto) y ?Akane? (Ishihara). Akane muere después de dar a luz a su bebe, y Takanori esta viviendo su vida de jubilado. Takanori no le cuenta a Fuuko sobre lo que ocurrido en el pasado con muchas cosas misteriosas que empezaron a suceder alrededor de Nagisa, Fuuko pronto descubre que esas cosas estan relacionadas con el caso del ?clip en linea maldito? ocurrido 5 años atras. 

Complete name               : F:ringuRingu.All.Movies.[CPTurbo.org]Sadako.3D.2.2013.720p.BluRay.DTS.x264-PublicHD (1).mkv
Format                      : Matroska
Format version              : Version 4 / Version 2
File size                   : 699 MiB
Duration                    : 1h 35mn
Overall bit rate            : 1 019 Kbps
Movie name                  : Sadako 3D 2 2013 720p BluRay DTS x264- ganool com
Encoded date                : UTC 2014-09-07 01:40:48
Writing application         : mkvmerge v7.1.0 ('Good Love') 64bit
Video
ID                          : 1
Format                      : AVC
Format/Info                 : Advanced Video Codec
Format profile              :[email protected]
Format settings, CABAC      : Yes
Format settings, ReFrames   : 4 frames
Codec ID                    : V_MPEG4/ISO/AVC
Duration                    : 1h 35mn
Nominal bit rate            : 953 Kbps
Width                       : 1 280 pixels
Height                      : 720 pixels
Display aspect ratio        : 16:9
Frame rate mode             : Constant
Frame rate                  : 23.976 fps
Color space                 : YUV
Chroma subsampling          : 4:2:0
Bit depth                   : 8 bits
Scan type                   : Progressive
Bits/(Pixel*Frame)          : 0.043
Writing library             : x264 core 135 r2345 f0c1c53
Audio
ID                          : 2
Format                      : AAC
Format/Info                 : Advanced Audio Codec
Format profile              : HE-AAC / LC
Codec ID                    : A_AAC
Duration                    : 1h 35mn
Channel(s)                  : 2 channels
Channel positions           : Front: L R
Sampling rate               : 48.0 KHz / 24.0 KHz
Compression mode            : Lossy
Language                    : Japanese
Default                     : Yes
Forced                      : No

Text
ID                          : 3
Format                      : UTF-8
Codec ID                    : S_TEXT/UTF8
Codec ID/Info               : UTF-8 Plain Text
Default                     : Yes
Forced                      : No












MEGA




raulitto



Ringu the final chapter tvrip 1999 serie jap+subs

TIENE SUBTITULOS EN INGLÉS PEGADOS (HARDCODED) MAS SUBTITULOS EN ESPAÑOL INCORPORADOS NO PEGADOS 262 MB PROMEDIO.






Título original: Ringu: Saishûshô (Ring: The Final Chapter) (TV Series)
Año: 1999
Duración: 54 min promedio
País: Japón
Director: Yoshito Fukumoto, Hiroshi Nishitani, Hidetomo Matsuda
Guión: Mitsuharu Makita, Kôji Suzuki
Música: Toshiyuki Watanabe
Fotografía: Akihiro Kawamura
Reparto
Toshirô Yanagiba, Tomoya Nagase, Kotomi Kyôno, Akiko Yada, Yûta Fukagawa, Yôichi Asakawa, Hitomi Kuroki, Tae Kimura, Kei Yamamoto, Takayuki Katô
Productora: Fuji Television Network / Kyodo Television
Género: Serie de TV. Terror | J-Horror. Sobrenatural. Fantasmas
Sinopsis
Serie de TV. 12 episodios. Cuatro estudiantes mueren de un ataque cardíaco en forma misteriosa. Un reportero de Central Newspaper, Asakawa, está determinado a encontrar la verdad. Descubre en su búsqueda que las cuatro chicas miraron una cinta de video dos semanas antes de morir. Final de la saga cinematográfica "Ringu".

Complete name               : F:ringuRingu Saishuushou (e.01) -esp.mkv
Format                      : Matroska
Format version              : Version 4 / Version 2
File size                   : 261 MiB
Duration                    : 46mn 13s
Overall bit rate            : 790 Kbps
Video
ID                          : 1
Format                      : AVC
Format/Info                 : Advanced Video Codec
Format profile              : [email protected]
Format settings, CABAC      : Yes
Format settings, ReFrames   : 4 frames
Codec ID                    : V_MPEG4/ISO/AVC
Bit rate                    : 650 Kbps
Width                       : 512 pixels
Height                      : 384 pixels
Display aspect ratio        : 4:3
Frame rate mode             : Variable
Color space                 : YUV
Chroma subsampling          : 4:2:0
Bit depth                   : 8 bits
Scan type                   : Progressive
Writing library             : x264 core 130 r2273 b3065e6
Audio
ID                          : 2
Format                      : AC-3
Format/Info                 : Audio Coding 3
Mode extension              : CM (complete main)
Format settings, Endianness : Big
Codec ID                    : A_AC3
Duration                    : 46mn 13s
Bit rate mode               : Constant
Bit rate                    : 128 Kbps
Channel(s)                  : 2 channels
Channel positions           : Front: L R
Sampling rate               : 44.1 KHz
Bit depth                   : 16 bits
Compression mode            : Lossy
Stream size                 : 42.3 MiB (16%)
Default                     : Yes
Forced                      : No

Text
ID                          : 3
Format                      : UTF-8
Codec ID                    : S_TEXT/UTF8
Codec ID/Info               : UTF-8 Plain Text
Default                     : Yes
Forced                      : No












MEGA


Pues eso es todo, solo falto la serie Rasen, la tengo pero no hay subtítulos en español, solo trae unos pegados en inglés y falta también el remake koreano Virus, pero esa no pertenece a esta saga.

Todas tienen su descripción y detalles, así que si a alguién le gusta o sirve alguna pues que la baje, no se engaña a nadie y esta para todos.

EN LAS PELÍCULAS EXTRAER CON 7ZIP O AGREGAR EXTENSIÓN .RAR Y EXTRAER CON WINRAR

EN LA SERIE AGREGAR EXTENSIÓN .MKV


Saludos desde México.


* {-webkit-touch-callout: text !important; -webkit-user-select: text !important; -khtml-user-select: text !important; -moz-user-select: text !important; -ms-user-select: text !important; user-select: text !important;}
Ringu 1,2,0,Sadako 1 y 2 720p +rasen+kanzen+serie
110 Puntos Score: 10/10
Visitas: 3777 Favoritos: 12
Ver los usuarios que votaron...
27 Comentarios Ringu 1,2,0,Sadako 1 y 2 720p +rasen+kanzen+serie
mieeeeee.... hermano... pedazo de post...!!! hay "sadako" pa todos jajajaja... pal que la vea como quiere....jajajaj.... me llevo algunas.... excelente!!!!
@kchekcha mieeeee... hermano pedazo de comentario...!!! muchas gracias, en verdad eres muy amable y ya me voy pues ya me duelen hasta mis ojitos de estar haciendo este post. gracias.
Excelente aporte y post muy bueno se valora el esfuerzo bro, de rato paso con puntos, saludos amigo
si excelente... pero como debemos mirarla... mejor dicho puedes hacernos un resumen? por piedad?  
@dohkazo si viste las americanas, no veas la 1 pues te va a parecer algo lenta, pero puedes ven kanzenban de 1995 pues tiene un poco mas de ritmo y cosas que no vienen en la 1 americana (ademas de chichis), de ah?
gracias amigo @Shadow729, la verdad no se como le haces para poner los megaposts, yo con este peque?
JO- Jo - Jo Me dejaste K.O con "la verdadera y original sadako". Wow... Todo lo que subes es para tenerlo de colecci?
SUPER APORTE E LO LLEVO Y DESCAARGO TODA LA NOCHE SALUDOS DESDE MEXICO 10+

Gracias , me llevo la de las tetotas
Excelente aporte, muchas gracias!!!
La parte 4 del aro 2 no logro descargarla, por JD me reconoce el archivo en mega pero no comienza a descargar y al abrir el link en chrome me lleva a google.com
Cita upapapa: Mostrar

se descarg?
excelente trabajo. van 10!!!!
Excelente trabajo. Muchas gracias por compartir!!!
Gran post!!! Muchas Gracias!!!!
Excelente post. ?
por alguna raz?
@jerjamby amigo es un problema general en Identi, puedes probar en otro momento actualizando a ver si ya esta, incluso hay posts abiertos tratando este mismo problema.
@raulitto pos ahora peor... no sale nada  
@raulitto pues sigo sin poder descargar ?
@jerjamby amigo a muchos les ha resultado este metodo    http://www.identi.li/index.php?topic=377903
por favor ch?
@raulitto muchas gracias, por fin pude descargar   .... pero hay alg?
Para dejar un comentario Registrate! o.. eres ya usuario? Accede!