El beso del dragon (kiss of the dragon) 1080p












Título original
Kiss of the Dragon
Año
2001
Duración
98 min.
País
 Estados Unidos
Director
Chris Nahon
Guión
Luc Besson & Robert Mark Kamen (Historia: Jet Li)
Música
Craig Armstrong
Fotografía
Thierry Arbogast
Reparto
Jet LiBridget FondaTchéky KaryoLawrence AshleyBurt KwoukJohn Forgeham
Productora
Coprodución USA-Francia; 20th Century Fox presenta una Europa Corp. Production / Quality Growth International Ltd. / Current & Immortal Entertainment / Canal +
Género
Acción | Artes marcialesProstituciónLiu Jian (Jet Li) es un experto agente del gobierno chino que llega a París desde Shanghai para desarrollar una delicada y ultrasecreta misión. Liu va a París para ayudar a Richard (Tchéky Karyo), un poco ortodoxo oficial de policía con un pequeño ejército a sus órdenes. La misión es un completo desastre, pues el hombre al que Liu ha de ayudar le traiciona. Liu se ve atrapado en una vasta y mortal conspiración: acusado de un asesinato que no ha cometido y perseguido en una ciudad que no conoce. Sin ningún lugar a dónde dirigirse, Liu se une a una chica americana llamada Jessica (Bridget Fonda), a quien Richard ha obligado a ejercer la prostitución. Mientras Jessica y Liu conspiran contra su taimado y cruel adversario que ha puesto ya en marcha sus respectivas trampas, Liu hace a Jessica una promesa que podría poner en peligro su carrera e incluso su vida.
General
Unique ID                                : 224574429628645651212025539635484883331 (0xA8F3763D8AA1EACA977BD7368974F983)
Complete name                            : C:UsersPCDesktopMy Shared FolderBlu-Ray a GrabarLa Marca del DragónLa Marca del Dragón.mkv
Format                                   : Matroska
Format version                           : Version 2
File size                                : 3.34 GiB
Duration                                 : 1h 38mn
Overall bit rate                         : 4 862 Kbps
Encoded date                             : UTC 2014-09-25 21:38:39
Writing application                      : mkvmerge v5.1.0 ('And so it goes') built on Nov 28 2011 23:58:28
Writing library                          : libebml v1.2.3 + libmatroska v1.3.0

Video
ID                                       : 1
Format                                   : AVC
Format/Info                              : Advanced Video Codec
Format profile                           : [email protected]
Format settings, CABAC                   : Yes
Format settings, ReFrames                : 4 frames
Muxing mode                              : Header stripping
Codec ID                                 : V_MPEG4/ISO/AVC
Duration                                 : 1h 38mn
Bit rate                                 : 4 000 Kbps
Width                                    : 1 920 pixels
Height                                   : 1 080 pixels
Display aspect ratio                     : 16:9
Frame rate                               : 23.976 fps
Color space                              : YUV
Chroma subsampling                       : 4:2:0
Bit depth                                : 8 bits
Scan type                                : Progressive
Bits/(Pixel*Frame)                       : 0.080
Stream size                              : 2.66 GiB (80%)
Writing library                          : x264 core 130 r2273 b3065e6
Encoding settings                        : cabac=1 / ref=1 / deblock=1:-1:-1 / analyse=0x3:0x113 / me=hex / subme=2 / psy=1 / psy_rd=1.00:0.15 / mixed_ref=0 / me_range=16 / chroma_me=1 / trellis=0 / 8x8dct=1 / cqm=0 / deadzone=21,11 / fast_pskip=1 / chroma_qp_offset=0 / threads=12 / lookahead_threads=4 / sliced_threads=0 / nr=0 / decimate=1 / interlaced=0 / bluray_compat=0 / constrained_intra=0 / bframes=3 / b_pyramid=2 / b_adapt=1 / b_bias=0 / direct=1 / weightb=1 / open_gop=0 / weightp=1 / keyint=240 / keyint_min=24 / scenecut=40 / intra_refresh=0 / rc_lookahead=10 / rc=abr / mbtree=1 / bitrate=4000 / ratetol=1.0 / qcomp=0.60 / qpmin=0 / qpmax=69 / qpstep=4 / ip_ratio=1.40 / aq=1:1.00
Default                                  : Yes
Forced                                   : No
Color primaries                          : BT.709-5, BT.1361, IEC 61966-2-4, SMPTE RP177
Transfer characteristics                 : BT.709-5, BT.1361
Matrix coefficients                      : BT.709-5, BT.1361, IEC 61966-2-4 709, SMPTE RP177

Audio #1
ID                                       : 2
Format                                   : AC-3
Format/Info                              : Audio Coding 3
Mode extension                           : CM (complete main)
Muxing mode                              : Header stripping
Codec ID                                 : A_AC3
Duration                                 : 1h 38mn
Bit rate mode                            : Constant
Bit rate                                 : 448 Kbps
Channel(s)                               : 6 channels
Channel positions                        : Front: L C R, Side: L R, LFE
Sampling rate                            : 48.0 KHz
Bit depth                                : 16 bits
Compression mode                         : Lossy
Stream size                              : 315 MiB (9%)
Title                                    : Audio Español Latino
Language                                 : Latin
Default                                  : Yes
Forced                                   : No

Audio #2
ID                                       : 3
Format                                   : AC-3
Format/Info                              : Audio Coding 3
Mode extension                           : CM (complete main)
Muxing mode                              : Header stripping
Codec ID                                 : A_AC3
Duration                                 : 1h 38mn
Bit rate mode                            : Constant
Bit rate                                 : 448 Kbps
Channel(s)                               : 6 channels
Channel positions                        : Front: L C R, Side: L R, LFE
Sampling rate                            : 48.0 KHz
Bit depth                                : 16 bits
Compression mode                         : Lossy
Stream size                              : 315 MiB (9%)
Title                                    : Audio Ingles
Language                                 : English
Default                                  : No
Forced                                   : No

Text #1
ID                                       : 4
Format                                   : PGS
Muxing mode                              : zlib
Codec ID                                 : S_HDMV/PGS
Codec ID/Info                            : The same subtitle format used on BDs/HD-DVDs
Title                                    : Subtitulos Español Latino
Language                                 : Spanish
Default                                  : No
Forced                                   : No

Text #2
ID                                       : 5
Format                                   : PGS
Muxing mode                              : zlib
Codec ID                                 : S_HDMV/PGS
Codec ID/Info                            : The same subtitle format used on BDs/HD-DVDs
Title                                    : Subtitulos Ingles
Language                                 : English
Default                                  : No
Forced                                   : No

Text #3
ID                                       : 6
Format                                   : UTF-8
Codec ID                                 : S_TEXT/UTF8
Codec ID/Info                            : UTF-8 Plain Text
Title                                    : Subtitulos Español Latino (Forzados)
Language                                 : Latin
Default                                  : No
Forced                                   : No
1080Amigos
El beso del dragon (kiss of the dragon) 1080p
60 Puntos Score: 10/10
Visitas: 7106 Favoritos: 9
Ver los usuarios que votaron...
11 Comentarios El beso del dragon (kiss of the dragon) 1080p
esta peli es buenisima
buen aporte !!
es audio latino????
Cita adal04: Mostrar

Si kpo  
hola ya descarge todas las partes y al queres descomprimir me dice que la parte 4 esta da?
Cita swainer: Mostrar
@piyo2 exelente aporte amigo como siempre..una consulta no tendr?
Disculpa tiene franjas negras?....
Para dejar un comentario Registrate! o.. eres ya usuario? Accede!