Street Kings II dvdrip-INGLES+ Subtituls

Street Kings (DvdRip).








La película trata sobre un policía de narcóticos que trabaja encubierto, cuyo compañero es asesinado y debe resolver un puzzle para ver quién está detrás del disparo?

Reparto: Ray Liotta, Linda Boston, Ele Bardha, Ron Causey, Kevin Chapman, John P. Chittick, Stephanie Cotton, Shawn Hatosy, Sidi Henderson.


Informacion del Archivo:

Movie name               : Street Kings II
Format                 : RealMedia
File size                : 304 MiB
Duration               : 1h 32mn
Overall bit rate           : 452 Kbps

Video
ID                   : 1
Format                 : RealVideo 4
Codec ID               : RV40
Codec ID/Info            : Based on AVC (H.264), Real Player 9
Duration               : 1h 32mn
Bit rate               : 292 Kbps
Width                  : 720 pixels
Height                 : 576 pixels
Display aspect ratio         : 5:4
Frame rate               : 29.000 fps
Standard               : PAL
Bits/(Pixel*Frame)         : 0.024
Stream size              : 193 MiB (63%)

Audio
ID                   : 0
Format                 : AAC
Format/Info              : Advanced Audio Codec
Codec ID               : raac
Codec ID/Info            : Real Player 9
Duration               : 1h 32mn
Bit rate               : 160 Kbps
Channel(s)               : 2 channels
Sampling rate            : 44.1 KHz
Bit depth                : 16 bits
Stream size              : 106 MiB (35%)







http://www.mediafire.com/?tocnj69oddhuv
Street Kings II dvdrip-INGLES+ Subtituls
5 Puntos Score: 5/10
Visitas: 984 Favoritos: 1
Ver los usuarios que votaron...
0 Comentarios Street Kings II dvdrip-INGLES+ Subtituls
Este post no tiene comentarios. Sea el primero!
Para dejar un comentario Registrate! o.. eres ya usuario? Accede!