Oops.. Este post tiene los enlaces eliminados!

Identi revisa las denuncias de los usuarios en busca de enlaces eliminados que no dejan descargar los archivos, este mensaje te informa que este post que estas viendo tiene los enlaces eliminados.

Usa el Buscador

Por favor, te recomendamos que uses el buscador para encontrar más alternativas.

The Hit List [2011] [DvdRip] [Latino] [Accion]

  • Categoría: Reciclaje
  • Publicado hace más de 5 años
The Hit List [2011] [DvdRip] [Latino] [Accion]



General
Complete name : v267_bydarkangelgirl_www.identi.es.avi
Format : AVI
Format/Info : Audio Video Interleave
File size : 712 MiB
Duration : 1h 30mn
Overall bit rate : 1 105 Kbps
Movie name : THLL
Writing application : Lavf52.33.0
Uploader: DarkAngelGirl

Video
ID : 0
Format : MPEG-4 Visual
Format profile : [email protected]
Format settings, BVOP : No
Format settings, QPel : No
Format settings, GMC : No warppoints
Format settings, Matrix : Default (H.263)
Codec ID : XVID
Codec ID/Hint : XviD
Duration : 1h 30mn
Bit rate : 1 029 Kbps
Width : 720 pixels
Height : 404 pixels
Display aspect ratio : 16:9
Frame rate : 23.976 fps
Color space : YUV
Chroma subsampling : 4:2:0
Bit depth : 8 bits
Scan type : Progressive
Bits/(Pixel*Frame) : 0.147
Stream size : 663 MiB (93%)
Writing library : XviD 1.2.1 (UTC 2008-12-04)

Audio
ID : 1
Format : MPEG Audio
Format version : Version 1
Format profile : Layer 3
Mode : Joint stereo
Mode extension : MS Stereo
Codec ID : 55
Codec ID/Hint : MP3
Duration : 1h 30mn
Bit rate mode : Constant
Bit rate : 64.0 Kbps
Channel(s) : 2 channels
Sampling rate : 48.0 KHz
Stream size : 41.3 MiB (6%)
Alignment : Aligned on interleaves
Interleave, duration : 24 ms (0.58 video frame)
Interleave, preload duration : 24 ms
Writing library : LAME3.98.2

SINOPSIS

Un hombre descontento crea una lista de resultados con un desconocido durante una noche de borrachera y luego tienen que correr para intentar salvar a los marcó para el exterminio de los cuerpos comienzan a acumularse y todos los dedos apuntan a él.
   



identi.es/darkangelgirl
The Hit List [2011] [DvdRip] [Latino] [Accion]
5 Puntos Score: 5/10
Visitas: 1743 Favoritos: 2
Ver los usuarios que votaron...
0 Comentarios The Hit List [2011] [DvdRip] [Latino] [Accion]
Este post no tiene comentarios. Sea el primero!
Para dejar un comentario Registrate! o.. eres ya usuario? Accede!