Poder absoluto 1996 latino/inglés 720p ligero

Poder absoluto 1996 latino/inglés 720p ligero







1.14 gb latino/inglés subtitulos en español incorporados no pegados.

Título original: Absolute Power
Año: 1996
Duración: 121 min.
País: Estados Unidos
Director: Clint Eastwood
Guión: William Goldman (Novela: David Baldacci)
Música: Lennie Niehaus
Fotografía: Jack N. Green
Reparto
Clint Eastwood, Gene Hackman, Ed Harris, Laura Linney, Judy Davis, Scott Glenn, Dennis Haysbert, E.G. Marshall, Alison Eastwood, Melora Hardin
Productora: Castle Rock Entertainment presenta una producción Malpaso
Género: Intriga. Thriller. Drama | Crimen
Sinopsis
Luther Whitney, un especialista en grandes robos, planea desvalijar la mansión de un magnate que se encuentra de vacaciones en el Caribe. Sin embargo, una vez dentro, es testigo involuntario de un asesinato que involucra al Presidente de Estados Unidos,
 a su jefe de gabinete y a dos agentes del Servicio Secreto. Pero, ¿a quién puede recurrir un criminal para acusar de asesinato a alguien relacionado con la Casa Blanca?

Format                                   : Matroska
Format version                           : Version 4 / Version 2
File size                                : 1.15 GiB
Duration                                 : 2h 1mn
Overall bit rate                         : 1 358 Kbps
Encoded date                             : UTC 2014-12-29 09:24:10
Writing application                      : mkvmerge v7.2.0

Video
ID                                       : 1
Format                                   : AVC
Format/Info                              : Advanced Video Codec
Format profile                           : [email protected]
Format settings, CABAC                   : Yes
Format settings, ReFrames                : 4 frames
Codec ID                                 : V_MPEG4/ISO/AVC
Duration                                 : 2h 1mn
Bit rate                                 : 1 100 Kbps
Width                                    : 1 280 pixels
Height                                   : 528 pixels
Display aspect ratio                     : 2.40:1
Frame rate mode                          : Constant
Frame rate                               : 23.976 fps
Color space                              : YUV
Chroma subsampling                       : 4:2:0
Bit depth                                : 8 bits
Scan type                                : Progressive
Bits/(Pixel*Frame)                       : 0.068
Stream size                              : 932 MiB (79%)
Writing library                          : x264 core 130 r2273
Audio #1
ID                                       : 2
Format                                   : AC-3
Format/Info                              : Audio Coding 3
Format profile                           : Dolby Digital
Mode extension                           : CM (complete main)
Format settings, Endianness              : Big
Codec ID                                 : A_AC3
Duration                                 : 2h 1mn
Bit rate mode                            : Constant
Bit rate                                 : 128 Kbps
Channel(s)                               : 2 channels
Channel positions                        : Front: L R
Sampling rate                            : 48.0 KHz
Bit depth                                : 16 bits
Compression mode                         : Lossy
Stream size                              : 111 MiB (9%)
Language                                 : Spanish
Default                                  : Yes
Forced                                   : No

Audio #2
ID                                       : 3
Format                                   : AC-3
Format/Info                              : Audio Coding 3
Format profile                           : Dolby Digital
Mode extension                           : CM (complete main)
Format settings, Endianness              : Big
Codec ID                                 : A_AC3
Duration                                 : 2h 1mn
Bit rate mode                            : Constant
Bit rate                                 : 128 Kbps
Channel(s)                               : 2 channels
Channel positions                        : Front: L R
Sampling rate                            : 48.0 KHz
Bit depth                                : 16 bits
Compression mode                         : Lossy
Stream size                              : 111 MiB (9%)
Language                                 : English
Default                                  : No
Forced                                   : No

Text
ID                                       : 4
Format                                   : UTF-8
Codec ID                                 : S_TEXT/UTF8
Codec ID/Info                            : UTF-8 Plain Text
Default                                  : Yes
Forced                                   : No
















raulitto


                              SHARED

                             ZIPPYSHARE

Enlaces De Descarga

 
AVISO FIREFOX
 Me fui a la tienda de videos donde decía en su página que tenían Firefox en español, pero la porquería solo venía en inglés, pregunte a los vendedores de Mercado Libre que según la tenían en español, pero a la mera hora resulto que solo en inglés, la compre en Tepito (lugar de mucha piratería y rateros) y nada, así que por el momento, no la pude conseguir, sé que existe el dvd porque lo llegué a tener al igual que el Cadillac rosa, pero ya los nuevos vienen distintos.
 
 Por otro lado en la tienda de videos (Mixup) me compré un disco blu-ray de otra de Clint que alguien me había pedido, viene en español y la verdad se ve que está muy buena, The gauntlet, ruta suicida en español, pero tengo un ligero inconveniente, mi pc no tiene blu-ray, por favor alguien dígame de un programa portable similar al dvd audio extractor que me sirva para blu-ray así solo buscare un café internet donde me ayuden.
 
AGREGAR EXTENSIÓN     .rar

Saludos desde México.

POR CIERTO, desde el día que fui a la tienda de videos me quiero volver chango, como dice Homero, pues encontré un blu-ray de all president´s men que viene en español, pero costaba mas de 20 U.S Dollars y pues esta muy caro, a ver quien la consigue en la red.
Poder absoluto 1996 latino/inglés 720p ligero
110 Puntos Score: 8.5/10
Visitas: 4327 Favoritos: 9
Ver los usuarios que votaron...
25 Comentarios Poder absoluto 1996 latino/inglés 720p ligero
+10 gracias capo excelente tu aporte bajando yaaaaaaaa  
Gracias por compartir. Que tengas un buen 2015
pelicula dedicada a tooooooooodo aquen Perro que este en la politica...ttttoooooo akel...gracias me la llevooooooooo...te dejo varias manitosSSSS  
GRACIAS GRACIAS GRACIAS BRO  
  esta pelicula la queria ver  
Aca te tiro otro titulo de otra peli que si conseguis sos un genio, es con matt damon y danny devito, Leg?
Gracias por tu Aporte y tu Tiempo!
gracias amigo +10 muy buenos tus aportes saludos
Me gusta esta peli Poder Absoluto   ya lo hab?
@akula1997 fijate que hoy fui a una tienda departamental hermana de Wal-mart aqu?
@raulitto estoy termianando de escribirte un PM sobre tu consulta
uta... ma...  por que nunca las bajo a tiempo    sorry     Feliz a?
@lopopo los links de zippy todav?
Muchas gracias hermnao
Gracias, buen aporte  
no puedo ver los links, no se como descargarla, ayuda por favor!
Cita Pedrobond: Mostrar
Si tienes el adblocker desactivalo
muy buen aporte deber?
Gracias ,tendras la del jinete palido en brrip  
Para dejar un comentario Registrate! o.. eres ya usuario? Accede!