Pedido:Especiales de la Pantera Rosa

Pink at First Sight



Informacion para nerds  (conocedores)

General
Complete name                            : C:Usersjudas priestDownloadsPink at First Sight.mp4
Format                                   : MPEG-4
Format profile                           : Base Media
Codec ID                                 : isom
File size                                : 408 MiB
Duration                                 : 22mn 38s
Overall bit rate mode                    : Constant
Overall bit rate                         : 2 520 Kbps
Movie name                               : Pink at First Sight
Genre                                    : Animacion
Recorded date                            : 1981
Encoded date                             : UTC 2014-12-29 11:57:50
Tagged date                              : UTC 2014-12-29 11:57:50
Writing application                      : Lavf56.15.102
Comment                                  : Capturado por :Limalozada

Video
ID                                       : 1
Format                                   : MPEG-4 Visual
Format profile                           : [email protected]
Format settings, BVOP                    : Yes
Format settings, QPel                    : No
Format settings, GMC                     : No warppoints
Format settings, Matrix                  : Default (H.263)
Codec ID                                 : 20
Duration                                 : 22mn 38s
Bit rate mode                            : Constant
Bit rate                                 : 2 324 Kbps
Width                                    : 792 pixels
Height                                   : 572 pixels
Display aspect ratio                     : 1.385
Frame rate mode                          : Variable
Frame rate                               : 17.227 fps
Original frame rate                      : 30.000 fps
Minimum frame rate                       : 6.000 fps
Maximum frame rate                       : 30.000 fps
Color space                              : YUV
Bit depth                                : 8 bits
Scan type                                : Progressive
Compression mode                         : Lossy
Bits/(Pixel*Frame)                       : 0.298
Stream size                              : 376 MiB (92%)
Encoded date                             : UTC 2014-12-29 11:57:50
Tagged date                              : UTC 2014-12-29 11:57:50

Audio
ID                                       : 2
Format                                   : MPEG Audio
Format version                           : Version 1
Format profile                           : Layer 2
Codec ID                                 : 6B
Duration                                 : 22mn 38s
Bit rate mode                            : Constant
Bit rate                                 : 192 Kbps
Channel count                            : 2 channels
Sampling rate                            : 48.0 KHz
Compression mode                         : Lossy
Stream size                              : 31.1 MiB (8%)
Encoded date                             : UTC 2014-12-29 11:57:50
Tagged date                              : UTC 2014-12-29 11:57:50


Descargar



Mega



Shared



4Shared




http://limatoons.blogspot.com/



Olym-Pinks





Informacion para nerds  (conocedores)

General
Complete name                            : C:Usersjudas priestVideosOlym-Pinks.mp4
Format                                   : MPEG-4
Format profile                           : Base Media
Codec ID                                 : isom
File size                                : 290 MiB
Duration                                 : 24mn 45s
Overall bit rate                         : 1 639 Kbps
Movie name                               : Olym-Pinks
Album                                    : Especial de juegos olimpicos.
Album/Performer                          : 
Performer                                : La pantera Rosa
Composer                                 : 
Genre                                    : Animacion Clasica
Recorded date                            : 1980
Encoded date                             : UTC 2014-12-28 23:41:45
Tagged date                              : UTC 2014-12-28 23:41:45
Writing application                      : Lavf56.16.101
Copyright                                : 
Comment                                  : Los mejores deportistas del mundo se reúnen para competir en los Juegos Olímpicos de invierno. Uno de los primeros en llegar es el más divertido, la Pantera Rosa. /  / Capturado por: Limalozada / Para:http://

Video
ID                                       : 1
Format                                   : AVC
Format/Info                              : Advanced Video Codec
Format profile                           : [email protected]
Format settings, CABAC                   : No
Format settings, ReFrames                : 1 frame
Codec ID                                 : avc1
Codec ID/Info                            : Advanced Video Coding
Duration                                 : 24mn 45s
Bit rate                                 : 1 500 Kbps
Width                                    : 1 184 pixels
Height                                   : 888 pixels
Display aspect ratio                     : 4:3
Frame rate mode                          : Constant
Frame rate                               : 30.000 fps
Color space                              : YUV
Chroma subsampling                       : 4:2:0
Bit depth                                : 8 bits
Scan type                                : Progressive
Bits/(Pixel*Frame)                       : 0.048
Stream size                              : 266 MiB (92%)
Writing library                          : x264 core 142 r2491
Encoding settings                        : cabac=0 / ref=1 / deblock=0:0:0 / analyse=0:0 / me=dia / subme=0 / psy=1 / psy_rd=1.00:0.00 / mixed_ref=0 / me_range=16 / chroma_me=1 / trellis=0 / 8x8dct=0 / cqm=0 / deadzone=21,11 / fast_pskip=1 / chroma_qp_offset=0 / threads=3 / lookahead_threads=1 / sliced_threads=0 / nr=0 / decimate=1 / interlaced=0 / bluray_compat=0 / constrained_intra=0 / bframes=0 / weightp=0 / keyint=300 / keyint_min=30 / scenecut=0 / intra_refresh=0 / rc_lookahead=0 / rc=abr / mbtree=0 / bitrate=1500 / ratetol=1.0 / qcomp=0.60 / qpmin=10 / qpmax=69 / qpstep=4 / vbv_maxrate=24000 / vbv_bufsize=24000 / nal_hrd=none / filler=0 / ip_ratio=1.40 / aq=0
Encoded date                             : UTC 2014-12-28 23:41:45
Tagged date                              : UTC 2014-12-28 23:41:45

Audio
ID                                       : 2
Format                                   : AAC
Format/Info                              : Advanced Audio Codec
Format profile                           : LC
Codec ID                                 : 40
Duration                                 : 24mn 45s
Duration_LastFrame                       : -13ms
Bit rate mode                            : Constant
Bit rate                                 : 128 Kbps
Channel count                            : 2 channels
Channel positions                        : Front: L R
Sampling rate                            : 48.0 KHz
Compression mode                         : Lossy
Stream size                              : 22.7 MiB (8%)
Encoded date                             : UTC 2014-12-28 23:41:45
Tagged date                              : UTC 2014-12-28 23:41:45


Descargar

Mega



Shared



4Shared



http://limatoons.blogspot.com
Pedido:Especiales de la Pantera Rosa
120 Puntos Score: 9.2/10
Visitas: 2606 Favoritos: 17
Ver los usuarios que votaron...
18 Comentarios Pedido:Especiales de la Pantera Rosa
van+10 @KrayTeR muchisimas gracias  
Los especiales estan demasiados interesantes. Te digo la siguiente pregunta: ?
@LAdrian  Gracias amigo por pasar y valorar .
@rugal2015 No hay de que amigo  que disfrutes del cap .
@takin Asi es amigo en lo personal me gustan mucho, E igualmente te deseo Un feliz t prospero a?
y porque son especiales amigo???
@educap Bueno como te lo explico mmm mira se le llama especial por que hacen referencia a alguna fecha alusiva o festiva en este caso se trata de el especial de d?
Muchas gracias, idioma ?
@Cardona Gracias por pasar , disculpa por no poner ese dato estan en espa?
NO DESCARGA SALE DESCARGA OMITIDA
@jorgebaoz En que servidor de que especial ? para que lo repare
Super amigo y gracias, felices fiestas
Hola muchas gracias
Pink at First Sight me sale incorecta la contrase?
muchas gracias  
@denovel  Muchas gracias por pasar amigo , sin duda si fueron muy felices las fientas

@pugpink Muchas gracias por pasar disculpa por no contestar ya que no revise mis notificaciones , pero afortunadamente @21061976  me hizo el favor de contestarte .

@21061976 Muchas gracias por pasar y por la buena onda de contestarle @pugpink  saludos
SABES MUCHOS NO SABEN NI LEER Y POR ESO NO SE FIJAN QUE PUSISTE 2 CONTRASE?
Para dejar un comentario Registrate! o.. eres ya usuario? Accede!