educap
"Por qué algo y no más bien nada?"

1994-Stargate la puerta estelar-Latino-Mega









Algunos buscaban esta peli asi que decidí subirla.




[ol][li]Stargate
Película de 1994[/li][li]7/10-IMDb
48 %-Rotten Tomatoes[/li][li]Stargate, literalmente, en inglés, «La puerta de las estrellas», es una película franco-estadounidense, escrita por Dean Devlin y Roland Emmerich, dirigida por este último y estrenada por primera vez en 1994.Wikipedia[/li][li]Fecha de estreno28 de octubre de 1994 (Estados Unidos)[/li][li]DirectorRoland Emmerich[/li][li]AdaptacionesStargate SG-1 (1997)[/li][li]Música compuesta porDavid Arnold[/li][li]GuiónDean DevlinRoland Emmerich[/li][li]Reparto
Ver 5 más

James SpaderDaniel Jackson


Kurt RussellJack O'Neill


Jaye DavidsonRa


Mili AvitalSha're


Alexis CruzSkaara[/li][li]Relacionadas
Ver 10 más

Stargate: Continuum2008


Stargate: The Ark of Truth2008

[/li][/ol]



Avi xvidLatino
1000 MB
mega
Uploader educap


General
Complete name      1994-Stargate la puerta estelar.avi
Format                                   : AVI
Format/Info                              : Audio Video Interleave
File size                                : 990 MiB
Duration                                 : 2h 9mn
Overall bit rate mode                    : Variable
Overall bit rate                         : 1 068 Kbps
Writing application                      : VirtualDubMod 1.5.4.1 (build 2178/release)
Writing library                          : VirtualDubMod build 2178/release

Video
ID                                       : 0
Format                                   : MPEG-4 Visual
Format profile                           : Advanced [email protected]
Format settings, BVOP                    : 1
Format settings, QPel                    : No
Format settings, GMC                     : No warppoints
Format settings, Matrix                  : Custom
Codec ID                                 : XVID
Codec ID/Hint                            : XviD
Duration                                 : 2h 9mn
Bit rate                                 : 946 Kbps
Width                                    : 656 pixels
Height                                   : 272 pixels
Display aspect ratio                     : 2.40:1
Frame rate                               : 23.976 fps
Color space                              : YUV
Chroma subsampling                       : 4:2:0
Bit depth                                : 8 bits
Scan type                                : Progressive
Compression mode                         : Lossy
Bits/(Pixel*Frame)                       : 0.221
Stream size                              : 877 MiB (89%)
Writing library                          : XviD 63

Audio
ID                                       : 1
Format                                   : MPEG Audio
Format version                           : Version 1
Format profile                           : Layer 3
Mode                                     : Joint stereo
Mode extension                           : MS Stereo
Codec ID                                 : 55
Codec ID/Hint                            : MP3
Duration                                 : 2h 9mn
Bit rate mode                            : Variable
Bit rate                                 : 110 Kbps
Nominal bit rate                         : 128 Kbps
Channel(s)                               : 2 channels
Sampling rate                            : 48.0 KHz
Compression mode                         : Lossy
Delay relative to video                  : 192ms
Stream size                              : 102 MiB (10%)
Alignment                                : Split accross interleaves
Interleave, duration                     : 24 ms (0.58 video frame)
Interleave, preload duration             : 980 ms
Writing library                          : LAME3.98r
Encoding settings                        : -m j -V 4 -q 2 -lowpass 17 --abr 128




















educap









1994-Stargate la puerta estelar-Latino-Mega
90 Puntos Score: 9/10
Visitas: 4235 Favoritos: 7
Ver los usuarios que votaron...
30 Comentarios 1994-Stargate la puerta estelar-Latino-Mega
Saludos.
Amigo pregunta. ?
super aporte amigo gran peli
Cita Shadow729: Mostrar
Hola, gracias por el aporte, pero parece que no puedo acceder a mega, sabes si es algo de mi pc o mundial, o regional, soy de Chile
Cita iurrea20: Mostrar
mmmm ni idea, yo por ejemplo estoy accediendo normalmente, lo acabo de probar... concejo: pinta el enlace y copia y pega en el navegador.... o usa gestor de descargas, como jd o mipony y nos dices
@educap muchas gracias, ya pude acceder, parece que era por que tenia mi sesi?
Que maravilla, la peli que comenz?
Cita sominus: Mostrar
Cita educap: Mostrar
Hoy no fiamos ma?
A los interesados en la versi?
@akula1997 de nada un gusto ser parcialmente util  
con respecto a la peli del general no la conozco, la googleo y si la veo te digo
@akula1997 la acabo de ver dual (1967) en descargacineclasico, tiene link activos de depositfiles: yo no descargo de ahi a ver si te animas te hace scon un buen audio  
Link muerto amigo. Verifica por favor. No expongas los links porque te los borran.  
Cita Shadow729: Mostrar
la verdad es que quien carajo se va a tomar el trabajo de denunciar esta peli: los intereses vienen de mas aca, no de alla. Una lastima: esto no se corrige ocultando los link... es una pelotudes ocultar el link... pero bueno...
@educap Amigo te recomiendo que las subas a Shared o 4Shared tambi?
A SPADER LE PASO UN CAMION POR LA CARA... ENVEJECIO EL TRIPLE QUE LOS DEMAS... QUE HDP


Gracias por el aporte.  
Lo mas parecido a la pelicula oculta de "Annunaki", esta pelicula esta disfrazada de ciencia ficcion por algunos toques chuscos pero en realidad muestra una historia que no nos quieren contar abiertamente...recomendada al 10000% saludos
Cita ruido: Mostrar
gracias por la reco, vamos a googlearla, saludos
Gracias, me llevo la peli para guardar!

Por casualidad no tienes la temp 9 en latino, de la serie SG1? No puedo conseguirla por ningun lado.. ni siquiera el audio

Se agradece este gran aporte, sigue asi  
Cita CasiOvale: Mostrar
la verdad es que no conozco la serie: si llegaste a la 9 temp. debe estar buena
Cita educap: Mostrar
acaso no es esta:
http://www.identi.li/index.php?topic=351909
Cita educap: Mostrar

Genial, gracias!  
gracias por este aporte es mi peli favorita
saludos
Para dejar un comentario Registrate! o.. eres ya usuario? Accede!