Oops.. Este post tiene los enlaces eliminados!

Identi revisa las denuncias de los usuarios en busca de enlaces eliminados que no dejan descargar los archivos, este mensaje te informa que este post que estas viendo tiene los enlaces eliminados.

Usa el Buscador

Por favor, te recomendamos que uses el buscador para encontrar más alternativas.

Nueva serie Netflix-Viva el rey julien 4/?

  • Categoría: Reciclaje
  • Publicado hace más de 1 año


El príncipe Julien es ahora el rey de los lémures. Pronto se dará cuenta de que para ser un respetado líder debe hacer algo más que festejar.









Información detallada sobre capitulo


General

Complete name                            : C:Usersjudas priestVideosvIVA EL REY JULIEN4.-Hueca esta la cabeza.mp4

Format                                   : MPEG-4

Format profile                           : Base Media

Codec ID                                 : isom

File size                                : 264 MiB

Duration                                 : 22mn 37s

Overall bit rate                         : 1 633 Kbps

Encoded date                             : UTC 2014-12-26 11:23:37

Tagged date                              : UTC 2014-12-26 11:23:37

Writing application                      : Lavf56.16.101


Video

ID                                       : 1

Format                                   : AVC

Format/Info                              : Advanced Video Codec

Format profile                           : [email protected]

Format settings, CABAC                   : No

Format settings, ReFrames                : 1 frame

Codec ID                                 : avc1

Codec ID/Info                            : Advanced Video Coding

Duration                                 : 22mn 37s

Bit rate                                 : 1 500 Kbps

Width                                    : 1 368 pixels

Height                                   : 772 pixels

Display aspect ratio                     : 16:9

Frame rate mode                          : Constant

Frame rate                               : 30.000 fps

Color space                              : YUV

Chroma subsampling                       : 4:2:0

Bit depth                                : 8 bits

Scan type                                : Progressive

Bits/(Pixel*Frame)                       : 0.047

Stream size                              : 242 MiB (92%)

Writing library                          : x264 core 142 r2491

Encoding settings                        : cabac=0 / ref=1 / deblock=0:0:0 / analyse=0:0 / me=dia / subme=0 / psy=1 / psy_rd=1.00:0.00 / mixed_ref=0 / me_range=16 / chroma_me=1 / trellis=0 / 8x8dct=0 / cqm=0 / deadzone=21,11 / fast_pskip=1 / chroma_qp_offset=0 / threads=3 / lookahead_threads=1 / sliced_threads=0 / nr=0 / decimate=1 / interlaced=0 / bluray_compat=0 / constrained_intra=0 / bframes=0 / weightp=0 / keyint=300 / keyint_min=30 / scenecut=0 / intra_refresh=0 / rc_lookahead=0 / rc=abr / mbtree=0 / bitrate=1500 / ratetol=1.0 / qcomp=0.60 / qpmin=10 / qpmax=69 / qpstep=4 / vbv_maxrate=24000 / vbv_bufsize=24000 / nal_hrd=none / filler=0 / ip_ratio=1.40 / aq=0

Encoded date                             : UTC 2014-12-26 11:23:37

Tagged date                              : UTC 2014-12-26 11:23:37


Audio

ID                                       : 2

Format                                   : AAC

Format/Info                              : Advanced Audio Codec

Format profile                           : LC

Codec ID                                 : 40

Duration                                 : 22mn 37s

Duration_LastFrame                       : -3ms

Bit rate mode                            : Constant

Bit rate                                 : 128 Kbps

Channel count                            : 2 channels

Channel positions                        : Front: L R

Sampling rate                            : 48.0 KHz

Compression mode                         : Lossy

Stream size                              : 20.7 MiB (8%)

Encoded date                             : UTC 2014-12-26 11:23:37

Tagged date                              : UTC 2014-12-26 11:23:37





Información sobre la serie


Título original Hall Kinhg Julien

Título en español:Viva el rey Julien

Año:2014

País de origen:Estados Unidos

Productora(s):Netflix y dreamworks

Género(s):Comedias animadas para TV, Programas de TV y series, Dibujos animados

Número de capítulos:4/?




Información del proyecto


Idioma(s) del Audio:Español latino

Fuente(s) del Audio:Webrip

Formato(s) del Audio:AAC

Fuente del Video(s):Webrip

Formato del Video(s):Mp4

Codec:MPEG-4

Subtítulos:N/a

Duración:00:22:37 minutos

Peso:266 megas

Capítulos a subir: Se subiran los 5 capitulos que hay disponibles.

Servidor:Shared



Créditos


Captura:Limalozada

Sicronización:N/a

Colaborador(es):Limalozada

Subida:Limalozada



Lista de capítulos y descarga


1.-Viva yo Subido


2.-El (casi) más popular Subido


3.-Abran paso al fosa Subido


4.-Hueca está la cabezaSubido


5.-El regreso del Tío rey




Pd: Se reversionara todos los capítulos y contendrán:

1.-Opening completo

2.-Ending completo

3.-Mayor calidad de video
Nueva serie Netflix-Viva el rey julien 4/?
90 Puntos Score: 10/10
Visitas: 1542 Favoritos: 4
Ver los usuarios que votaron...
7 Comentarios Nueva serie Netflix-Viva el rey julien 4/?
Gracias por avisarme. No te olvides de citarme la siguiente  
la vi en netflix y esta graciosa, ahi van +10 por compartir
muy groso lo tuyo....
Felices fiestas amigo!
@crismate gRACIAS POR PASAR .

@alexpotter  Claro amigo conforme vayan saliendo los ire posteando y no dudes que te citare

@carlosrios Gracias por pasar

@diquispe Asi es tiene lo suyo esperemos que los proximos capitulos sean asi .

@mcfly gracias por pasar

@kaylamicae Muchas gracias amigos , y vaya que fueron felices .
Para dejar un comentario Registrate! o.. eres ya usuario? Accede!