Bromas que matan Jawbreaker dvdrip latino



Tres de las más populares estudiantes del Instituto Reagan matan accidentalmente a la reina del baile de graduación con un caramelo. La broma de cumpleaños se convierte en una tragedia que es descubierta por la empollona de la clase. Para evitar que les delate, la convertirán en la jefa del grupo. Comedia que parodia los filmes de terror ambientados en las High Schools americanas.
 
Titulo Original: Jawbreaker
Titulo Hispano: Bromas Que Matan
Idioma: Español Latino
País: USA
Año: 1999
Género: Comedia | Comedia juvenil
Tamaño: 1,34 GB

Capturas

General
Complete name                            : H:Bromas que Matan.avi
Format                                   : AVI
Format/Info                              : Audio Video Interleave
File size                                : 1.35 GiB
Duration                                 : 1h 26mn
Overall bit rate                         : 2 228 Kbps
Writing application                      : VirtualDubMod 1.5.10.3 | www.virtualdub-fr.org || (build 2550/release)
Writing library                          : VirtualDubMod build 2550/release

Video
ID                                       : 0
Format                                   : MPEG-4 Visual
Format profile                           : Advanced [email protected]
Format settings, BVOP                    : No
Format settings, QPel                    : No
Format settings, GMC                     : No warppoints
Format settings, Matrix                  : Custom
Codec ID                                 : XVID
Codec ID/Hint                            : XviD
Duration                                 : 1h 26mn
Bit rate                                 : 2 090 Kbps
Width                                    : 720 pixels
Height                                   : 416 pixels
Display aspect ratio                     : 1.731
Frame rate                               : 23.976 fps
Color space                              : YUV
Chroma subsampling                       : 4:2:0
Bit depth                                : 8 bits
Scan type                                : Progressive
Compression mode                         : Lossy
Bits/(Pixel*Frame)                       : 0.291
Stream size                              : 1.27 GiB (94%)
Writing library                          : XviD 1.2.1 (UTC 2008-12-04)

Audio
ID                                       : 1
Format                                   : MPEG Audio
Format version                           : Version 1
Format profile                           : Layer 3
Mode                                     : Joint stereo
Mode extension                           : MS Stereo
Codec ID                                 : 55
Codec ID/Hint                            : MP3
Duration                                 : 1h 26mn
Bit rate mode                            : Constant
Bit rate                                 : 128 Kbps
Channel(s)                               : 2 channels
Sampling rate                            : 44.1 KHz
Compression mode                         : Lossy
Stream size                              : 79.4 MiB (6%)
Alignment                                : Split accross interleaves
Interleave, duration                     : 42 ms (1.00 video frame)
Interleave, preload duration             : 500 ms
Writing library                          : LAME3.99r
Encoding settings                        : -m j -V 4 -q 0 -lowpass 17 -b 128


Bromas que matan Jawbreaker dvdrip latino
20 Puntos Score: 10/10
Visitas: 3399 Favoritos: 5
Ver los usuarios que votaron...
6 Comentarios Bromas que matan Jawbreaker dvdrip latino
excelente aporte +10  
no carga los links
@lamoncha yo use mi pony y jdownloader y me cargaron los links en los 2  

esta imagen, de chicas muy bonitas, curiosamente me da gracia mas que otra clase de placer.
GRacias, favor subirlo en mega, xq ese servidor no sirve, gracias
Para dejar un comentario Registrate! o.. eres ya usuario? Accede!