New girl temporadas 1,2,y3 audio latino Zooey Des



La serie comienza con Jessica «Jess» Day (interpretada por Zooey Deschanel), una mujer peculiar y alegre de casi treinta años que da clases en una escuela primaria local de Los Ángeles. Jess comienza a buscar un nuevo lugar para vivir después de descubrir que su novio la engaña. Al ver un anuncio de un nuevo compañero de cuarto en Craigslist, se muda con tres jóvenes: Nick, Schmidt y Coach. Muy poco después de su traslado, Coach se va, y es sustituido por Winston, otro joven que había vivido en el apartamento con Nick y Schmidt.  




Capturas 



204 MB (214.562.064 bytes)
detalles del video
General
Complete name                            GIRL T1 1X01 LAT.avi
Format                                   : AVI
Format/Info                              : Audio Video Interleave
File size                                : 205 MiB
Duration                                 : 21mn 11s
Overall bit rate                         : 1 350 Kbps
Writing application                      : VirtualDubMod 1.5.4.1 (build 2178/release)
Writing library                          : Boilsoft AVI tool build 1/release

Video
ID                                       : 0
Format                                   : MPEG-4 Visual
Format profile                           : Advanced [email protected]
Format settings, BVOP                    : 1
Format settings, QPel                    : No
Format settings, GMC                     : No warppoints
Format settings, Matrix                  : Custom
Codec ID                                 : XVID
Codec ID/Hint                            : XviD
Duration                                 : 21mn 11s
Bit rate                                 : 1 213 Kbps
Width                                    : 640 pixels
Height                                   : 480 pixels
Display aspect ratio                     : 4:3
Frame rate                               : 23.976 fps
Color space                              : YUV
Chroma subsampling                       : 4:2:0
Bit depth                                : 8 bits
Scan type                                : Progressive
Compression mode                         : Lossy
Bits/(Pixel*Frame)                       : 0.165
Stream size                              : 184 MiB (90%)
Writing library                          : XviD 64

Audio
ID                                       : 1
Format                                   : MPEG Audio
Format version                           : Version 1
Format profile                           : Layer 3
Mode                                     : Joint stereo
Mode extension                           : MS Stereo
Codec ID                                 : 55
Codec ID/Hint                            : MP3
Duration                                 : 21mn 11s
Bit rate mode                            : Constant
Bit rate                                 : 128 Kbps
Channel(s)                               : 2 channels
Sampling rate                            : 48.0 KHz
Compression mode                         : Lossy
Delay relative to video                  : 48ms
Stream size                              : 19.4 MiB (9%)
Alignment                                : Aligned on interleaves
Interleave, duration                     : 42 ms (1.00 video frame)
Interleave, preload duration             : 504 ms
Writing library                          : LAME3.98r
Encoding settings                        : -m j -V 4 -q 2 -lowpass 17 -b 128
 


T1 24 Capitulos


T2 25 Capitulos


T3 23 Capitulos
New girl temporadas 1,2,y3 audio latino Zooey Des
85 Puntos Score: 9.4/10
Visitas: 5842 Favoritos: 13
Ver los usuarios que votaron...
41 Comentarios New girl temporadas 1,2,y3 audio latino Zooey Des
amigo dice complemento desactualizado no se puede descargar podrias ayudarme,gracias
Oye Amigo No Podrias Cosneguir The Client list 2 Temporada   +10
muy buen post ahora que estoy descargando el dvd los hare latinos jeje muchas gracias en unos dias vuelvo con puntos  
@juanw200 podrias decirme que pasa?? que estoy haciendo mal ?? por favor
@emc2 jdownloader da problemas, descargate mi pony ese esta mejor acabo de probar y funcionan los links, en mi otra pc tengo el jdownloader 2  ahorita pruebo ver si funcionan
Me llevo la temporada 3 de la m?
gracias, amigo,, super aporte
puede ser que falte de la temporada 2, el cap 4?
te agradezco mucho el aporte. me llevo la tercera. saludos
excelente aporte +10  
Gracias por compartir  
@juanw200 gracias amigo me imagino que son los mismos que tenias separados verdad gracias de nuevo saludos
@drako_jep si son los mismos que tenia en firedrive
hola y gracias por subir la serie
pero no me deja descargar
el episodio 1 de la temporada 1
y el episodio 3 de la temporada 2
si lo resubes por otro servidor te lo agradeceria
saludos y  gracias
Tremendo post, muy bien armado , super comleto. buenisimo  
Cap 1 Temp 1, me tira error. No me deja descargar. Solo ese capitulo por ahora, el resto bien.
@juanw200
Gracias loco sos un genio
Solo son 3 temporadas? es realmente divertida esta serie.
muy buen aporte
como envio los links a mipony??
@rayuck solo abre mipony y despues entras aqui y le das  en el boton que dice CLICK AQUI PARA AGREGAR LINKS A JDOWNLOADER se abrir otra pesta?
+10 Amigo, muchas gracias por subirla en latino a Mega      
Oye Broher hay problema con el capitulo 13, 14 y 24 de la primer temporada por fa resubelos un saludo y gracias
Audio latino o dual audio? Saludos.
Vas a poner la temporada 4 en latino cuando termine. Gracias ya vi todas las temporadas buen trabajo
discupa me pregunta cuando comienza la cuarta temporade de new girl que ya etoy ancioso por verla
@indioviejo @kevinmc12 la verdad no sabria decirles,la temporada anterior fue estrenada en agosto quizas hasta ese mes la pongan si tenemos suerte
o bueno grasias por el dato
muchisias gracias amigo, en la primer temporada los capitulos 4 y 18 estan no disponibles. Podrias resubirlos?
ya pude descargarlos muchas gracias!!! Solo no se si me pasa a mi o a todos pero falta el cap 4 de la segunda temporada
ya vi que lo subiste a zippyshare eres un capo!! mil gracias!
Es dual o solo latino?
TODOS  los links muertos podrias resubirlo??   o no lo tienes en hd?
los links muertos  
Para dejar un comentario Registrate! o.. eres ya usuario? Accede!