Conan the barbarian (1982) 1080p














Título original: Conan the Barbarian
Título Latino: Conan, el bárbaro
Año: 1982
Duración: 131 min.
País: Estados Unidos
Director: John Milius
Guión: John Milius & Oliver Stone (Cómic: Robert E. Howard)
Música: Basil Poledouris
Fotografía: Duke Callaghan
Reparto: Arnold Schwarzenegger, James Earl Jones, Sandahl Bergman, Max von Sydow, Ben Davidson, Sven-Ole Thorsen, Cassandra Gaviola, Gerry Lopez, Mako, Valérie Quennessen, William Smith, Nadiuska, Jorge Sanz, Franco Columbu 
Productora: Edward R. Pressman Production / Dino de Laurentiis Productions
Género: Aventuras. Acción. Fantástico | Fantasía medieval. Espada y brujería. Cómic
Premios:
1982: Saturn Awards: Mejor Actriz (Bergman). 5 nominaciones incluyendo Película Fantasía
1982: Globos de Oro: Nueva Estrella del Año en Cine (Sandahl Bergman)








En una oscura época dominada por el poder de la espada y la brujería conocida como la Era Hiboria, los secuaces de Thulsa Doom, líder de un cruel ejército de guerreros que domina Aquilonia, invaden una aldea de Cimmeria y asesinan a todos sus habitantes, excepto a los niños, que son hechos prisioneros uno de ellos, Conan. Años después, el joven se ha convertido en un fuerzudo y valiente guerrero barbaro.































General
Complete name                            : Conan the Barbarian (1982) EXTENDED CUT 1080p BDRip Dual Latino-Inglés [Subt. Esp].mkv
Format                                   : Matroska
Format version                           : Version 4 / Version 2
File size                                : 9.68 GiB
Duration                                 : 2h 10mn
Overall bit rate                         : 10.6 Mbps
Movie name                               :  Conan the Barbarian (1982) EXTENDED CUT 1080p BDRip Dual Latino-Inglés [Subt. Esp]
Encoded date                             : UTC 2014-11-08 22:55:47
Writing application                      : mkvmerge v7.1.0 ('Good Love') 64bit built on Jul 27 2014 13:06:55
Writing library                          : libebml v1.3.0 + libmatroska v1.4.1

Video
ID                                       : 1
Format                                   : AVC
Format/Info                              : Advanced Video Codec
Format profile                           : [email protected]
Format settings, CABAC                   : Yes
Format settings, ReFrames                : 5 frames
Codec ID                                 : V_MPEG4/ISO/AVC
Duration                                 : 2h 10mn
Bit rate                                 : 8 085 Kbps
Width                                    : 1 920 pixels
Height                                   : 816 pixels
Display aspect ratio                     : 2.35:1
Frame rate mode                          : Constant
Frame rate                               : 23.976 fps
Color space                              : YUV
Chroma subsampling                       : 4:2:0
Bit depth                                : 8 bits
Scan type                                : Progressive
Bits/(Pixel*Frame)                       : 0.215
Stream size                              : 7.18 GiB (74%)
Title                                    : Conan the Barbarian (1982) EXTENDED CUT 1080p BDRip Dual Latino-Inglés [Subt. Esp]
Writing library                          : x264 core 115 r2008 4c552d8
Encoding settings                        : cabac=1 / ref=5 / deblock=1:0:0 / analyse=0x3:0x113 / me=umh / subme=8 / psy=1 / psy_rd=1.00:0.00 / mixed_ref=1 / me_range=16 / chroma_me=1 / trellis=1 / 8x8dct=1 / cqm=0 / deadzone=21,11 / fast_pskip=1 / chroma_qp_offset=-2 / threads=12 / sliced_threads=0 / nr=0 / decimate=1 / interlaced=0 / bluray_compat=0 / constrained_intra=0 / bframes=3 / b_pyramid=2 / b_adapt=2 / b_bias=0 / direct=3 / weightb=1 / open_gop=0 / weightp=2 / keyint=240 / keyint_min=24 / scenecut=40 / intra_refresh=0 / rc_lookahead=50 / rc=2pass / mbtree=1 / bitrate=8085 / ratetol=1.0 / qcomp=0.60 / qpmin=0 / qpmax=69 / qpstep=4 / cplxblur=20.0 / qblur=0.5 / ip_ratio=1.40 / aq=1:1.00
Language                                 : English
Default                                  : Yes
Forced                                   : No

Audio #1
ID                                       : 2
Format                                   : AC-3
Format/Info                              : Audio Coding 3
Mode extension                           : CM (complete main)
Format settings, Endianness              : Big
Codec ID                                 : A_AC3
Duration                                 : 2h 10mn
Bit rate mode                            : Constant
Bit rate                                 : 192 Kbps
Channel(s)                               : 2 channels
Channel positions                        : Front: L R
Sampling rate                            : 48.0 KHz
Bit depth                                : 16 bits
Compression mode                         : Lossy
Stream size                              : 179 MiB (2%)
Title                                    : Conan the Barbarian (1982) EXTENDED CUT - Español Latino AC3 2.0 - 192 Kbps (DOBLAJE ORGINAL)
Language                                 : Spanish
Default                                  : Yes
Forced                                   : No

Audio #2
ID                                       : 3
Format                                   : AC-3
Format/Info                              : Audio Coding 3
Mode extension                           : CM (complete main)
Format settings, Endianness              : Big
Codec ID                                 : A_AC3
Duration                                 : 2h 10mn
Bit rate mode                            : Constant
Bit rate                                 : 192 Kbps
Channel(s)                               : 2 channels
Channel positions                        : Front: L R
Sampling rate                            : 48.0 KHz
Bit depth                                : 16 bits
Compression mode                         : Lossy
Stream size                              : 179 MiB (2%)
Title                                    : Conan the Barbarian (1982) EXTENDED CUT - Español Latino AC3 2.0 - 192 Kbps (NUEVO DOBLAJE)
Language                                 : Spanish
Default                                  : No
Forced                                   : No

Audio #3
ID                                       : 4
Format                                   : AC-3
Format/Info                              : Audio Coding 3
Mode extension                           : CM (complete main)
Format settings, Endianness              : Big
Codec ID                                 : A_AC3
Duration                                 : 2h 10mn
Bit rate mode                            : Constant
Bit rate                                 : 640 Kbps
Channel(s)                               : 6 channels
Channel positions                        : Front: L C R, Side: L R, LFE
Sampling rate                            : 48.0 KHz
Bit depth                                : 16 bits
Compression mode                         : Lossy
Stream size                              : 598 MiB (6%)
Title                                    : Conan the Barbarian (1982) EXTENDED CUT - Inglés AC3 5.1 - 640 Kbps
Language                                 : English
Default                                  : No
Forced                                   : No

Audio #4
ID                                       : 5
Format                                   : DTS
Format/Info                              : Digital Theater Systems
Mode                                     : 16
Format settings, Endianness              : Big
Codec ID                                 : A_DTS
Duration                                 : 2h 10mn
Bit rate mode                            : Constant
Bit rate                                 : 1 509 Kbps
Channel(s)                               : 6 channels
Channel positions                        : Front: L C R, Side: L R, LFE
Sampling rate                            : 48.0 KHz
Bit depth                                : 24 bits
Compression mode                         : Lossy
Stream size                              : 1.38 GiB (14%)
Title                                    : Conan the Barbarian (1982) EXTENDED CUT - Inglés DTS 5.1 - 1509 Kbps
Language                                 : English
Default                                  : No
Forced                                   : No

Text #1
ID                                       : 6
Format                                   : UTF-8
Codec ID                                 : S_TEXT/UTF8
Codec ID/Info                            : UTF-8 Plain Text
Title                                    : Conan the Barbarian (1982) EXTENDED CUT - Subtítulos Español
Language                                 : Spanish
Default                                  : No
Forced                                   : No

Text #2
ID                                       : 7
Format                                   : UTF-8
Codec ID                                 : S_TEXT/UTF8
Codec ID/Info                            : UTF-8 Plain Text
Title                                    : Conan the Barbarian (1982) EXTENDED CUT - Subtítulos Español Forzados
Language                                 : Spanish
Default                                  : Yes
Forced                                   : No

Menu
00:00:00.000                             : en:00:00:00.000
00:13:35.148                             : en:00:13:35.148
00:17:38.683                             : en:00:17:38.683
00:24:09.323                             : en:00:24:09.323
00:29:45.200                             : en:00:29:45.200
00:36:55.588                             : en:00:36:55.588
00:48:39.291                             : en:00:48:39.291
00:59:52.547                             : en:00:59:52.547
01:05:16.162                             : en:01:05:16.162
01:16:01.432                             : en:01:16:01.432
01:23:44.436                             : en:01:23:44.436
01:38:02.335                             : en:01:38:02.335
01:44:03.571                             : en:01:44:03.571
01:56:24.978                             : en:01:56:24.978
02:06:02.346                             : en:02:06:02.346








1080Amigos








Conan the barbarian (1982) 1080p
32 Puntos Score: 8/10
Visitas: 2348 Favoritos: 2
Ver los usuarios que votaron...
13 Comentarios Conan the barbarian (1982) 1080p
serias tan amable de postear el audio latino aparte si lo tiene    
Excelente amigo no hab?
Cita jc_valdes: Mostrar
No hay nada que decir de esta GRAN pelicula, de este CLASICO, si no la viste a que esperas para verla  
Gran aporte amigo!!! Subiras CONAN EL DESTRUCTOR??  
Muy buen aporte, nunca vi esta peli. si la de conan el destructor y la guerrera roja pero nunca esta.
Ahora bien ?
NO PODES VOLVER A RIPELA NO TODOS TENEMOS UNA CONEXION A 100 MEGAS COMO VOS EN ESTE PAIS BANANERO DE MIERDA DE ARGENTINA. SABES LO QUE ES BAJAR CASI 10 GIGAS A 1 MEGABITS PORQUE NO PIENSAN EN LOS POBRES LA PQLPARIO.
Cita ciscoit: Mostrar


  que casualidad...... yo tengo una velocidad de descarga de 120kb/s maximo y de subida de 50kb/s..... creo que eso es 1mega....  
Gracias x este portazo!!!!
Cita piyo2: Mostrar
Eso quiere decir que lo subio otra persona, viendo que el pass es 1080Amigos , veo que se trata de una web y ya lo encontre en google
Cita AsherB: Mostrar

NOP, son suvidas por mi aca en identi y en el foro de 1080Amigos   como piyo y mi avatar tambien es de iron man, en el foro encontraras varias pelis subidas por mi y por el administrador, por eso ese comentario.... yo tengo 1mb de velocidad de internet, y subo a 50kb/s como maximo   pasa que a mi me gusta compartir, me gustar?
Cita HYAKIMARU: Mostrar


Cual queres...... el original o la vercion nueva  
Cita piyo2: Mostrar
Para dejar un comentario Registrate! o.. eres ya usuario? Accede!