Oops.. Este post tiene los enlaces eliminados!

Identi revisa las denuncias de los usuarios en busca de enlaces eliminados que no dejan descargar los archivos, este mensaje te informa que este post que estas viendo tiene los enlaces eliminados.

Usa el Buscador

Por favor, te recomendamos que uses el buscador para encontrar más alternativas.

El proyecto de la Bruja de Blair [1999] BRrip 720p

  • Categoría: Reciclaje
  • Publicado hace más de 2 años

 
 
Título original : The Blair Witch Project
 Año : 1999
 País : [Estados Unidos]
 Director : Daniel Myrick, Eduardo Sánchez
 Guión : Daniel Myrick, Eduardo Sánchez
 Reparto : Heather Donahue, Michael Williams, Joshua Leonard
 Productora : Artisan Entertainment presenta una producción Haxan Films
 Género : Terror. Intriga | Falso documental. Metraje encontrado. Cine independiente USA. Película de culto

 
 
 Sinopsis
 
 El 21 de octubre de 1994, Heather Donahue, Joshua Leonard y Michael Williams entraron en un bosque de Maryland para rodar un documental sobre una leyenda local, "La bruja de Blair". No se volvió a saber de ellos. Un año después, la cámara con la que rodaron fue encontrada, mostrando los terroríficos eventos que dieron lugar a su desaparición.
 
 
 Formato : MKV
 Tamaño : 2.38 GiB
 Calidad : BRrip
 Duration : 1h 21mn
 Overall bit rate : 4 189 Kbps
 Idioma : Dual Español Latino e Inglés
 Subtitulos Español : SRT

 
 Video #1
 ID : 1
 Format : AVC
 Format/Info : Advanced Video Codec
 Format profile : [email protected]
 Format settings, CABAC : Yes
 Format settings, ReFrames : 4 frames
 Codec ID : V_MPEG4/ISO/AVC
 Duration : 1h 21mn
 Bit rate : 3 359 Kbps
 Width : 1 280 pixels
 Height : 936 pixels
 Display aspect ratio : 4:3
 Frame rate : 23.976 fps
 Color space : YUV
 Chroma subsampling : 4:2:0
 Bit depth : 8 bits
 Scan type : Progressive
 Bits/(Pixel*Frame) : 0.117
 Stream size : 1.86 GiB (78%)
 
 Audio #2
 ID : 2
 Format : AC-3
 Format/Info : Audio Coding 3
 Mode extension : CM (complete main)
 Format settings, Endianness : Big
 Codec ID : A_AC3
 Duration : 1h 21mn
 Bit rate mode : Constant
 Bit rate : 192 Kbps
 Channel(s) : 2 channels
 Channel positions : Front: L R
 Sampling rate : 48.0 KHz
 Bit depth : 16 bits
 Compression mode : Lossy
 Delay relative to video : 28ms
 Stream size : 112 MiB (5%)
 Title : Latino
 Language : Spanish
 Default : Yes
 Forced : Yes
 
 Audio #3
 ID : 3
 Format : AC-3
 Format/Info : Audio Coding 3
 Mode extension : CM (complete main)
 Format settings, Endianness : Big
 Codec ID : A_AC3
 Duration : 1h 21mn
 Bit rate mode : Constant
 Bit rate : 640 Kbps
 Channel(s) : 2 channels
 Channel positions : Front: L R
 Sampling rate : 48.0 KHz
 Bit depth : 16 bits
 Compression mode : Lossy
 Stream size : 372 MiB (15%)
 Title : Ingles
 Language : English
 Default : No
 Forced : No
 
 
 
 
 
 
 
 
 MEGA
 
 

 

Nota: Esta pelicula en bluray tiene formato 4:3 no se edito en 16:9 Widescreen es por eso que tiene esas resoluciones.

 
 
 
El proyecto de la Bruja de Blair [1999] BRrip 720p
50 Puntos Score: 10/10
Visitas: 2245 Favoritos: 6
Ver los usuarios que votaron...
8 Comentarios El proyecto de la Bruja de Blair [1999] BRrip 720p
gracias, la tenia en dvdrip
pasame solo el audio amigo te lo agradezeria  
Todavia anda rondando por ahi este robo? esta peli es el atraco mas grande del mundo. hieron creer a todos que era una peli de terror, y es solo una estafa.
Jajaa yo no recuerdo como era vale la pena verla? era muy peque?
muchas gracias , hey el audio latino es el original o es agregado?
Para dejar un comentario Registrate! o.. eres ya usuario? Accede!