Rover Dangerfield (1991) [DVDrip][Español Latino]


 


 TÍTULO ORIGINAL Rover Dangerfield
 AÑO 1991
 DURACIÓN 74 min.
 PAÍS [Estados Unidos]
 DIRECTOR Jim George, Bob Seeley
 GUIÓN Rodney Dangerfield, Jeff Schimmel (Historia: Harold Ramis)
 MÚSICA David Newman
 FOTOGRAFÍA Animation
 REPARTO Animation
 PRODUCTORA Warner Bros. Pictures
 GÉNERO Animación. Comedia. Infantil | Perros/Lobos



 

 
 SINOPSIS     

 
 Rover Dangerfield es un perro muy especial. Además de ser un gran cómico, es un buscavidas que habla muy deprisa y se las sabe todas. Su dueña, Connie, es una bailarina de Las Vegas, que le adora. Pero el vengativo y celoso novio de Connie quiere deshacerse de él a toda costa...
 
 

 
 DATOS DEL RIP

 
 
 Formato : AVI
 Calidad : DVDRIP
 Tamaño : 761 MiB
 Duracion : 1h 13mn
 Idioma : Español Latino (Capturado del VHS)
 
 
 Video #0
 
 Format : AVI
 Codec ID/Hint : DivX 5
 Duration : 1h 13mn
 Bit rate : 1 215 Kbps
 Width : 640 pixels
 Height : 480 pixels
 Display aspect ratio : 4:3
 Frame rate : 23.976 fps
 Stream size : 638 MiB (84%)
 
 Audio #1
 
 Codec ID/Hint : MP3
 Duration : 1h 13mn
 Bit rate mode : Constant
 Bit rate : 224 Kbps
 Channel(s) : 2 channels
 Sampling rate : 44.1 KHz
 Stream size : 118 MiB (15%)
 
 
 Capturas
 
 
 
 
 
 
 
 
 
 
 LINKS
 
 
 
 Nota personal
 
 Esta película no se edito en español latino cuando salio en DVD y no se encuentra en la red. Me costo encontrar el vhs en español latino pero bueno la pude conseguir por mercadolibre y la compre. Esta película la había alquilado y visto miles de veces cuando era niño y es una de mis favoritas.
 
 Nota sobre el rip
 
 Lo que hice fue capturar y sincronizar el audio latino del vhs con un dvdrip en inglés y quedo perfecto. Tiene dos pequeñas ediciones que las tuve que hacer para sincronizar el audio.
 
 Si tienen problemas con la reproducción de la pelicula recomiendo que usen el reproductor vlc player que anda perfecto.
 
 
Rover Dangerfield (1991) [DVDrip][Español Latino]
50 Puntos Score: 8.3/10
Visitas: 1589 Favoritos: 2
Ver los usuarios que votaron...
5 Comentarios Rover Dangerfield (1991) [DVDrip][Español Latino]
Muchas gracias... la vi de peque?
Cita Ronemima: Mostrar
Genial aporte
saludos  
Para dejar un comentario Registrate! o.. eres ya usuario? Accede!