La historia sin fin [1984] [Latino] [1080p] Lite



Título original Die unendliche Geschichte (The Neverending Story)
Año 1984
Duración 94 min.
País [Alemania del Oeste (RFA)]  Alemania del Oeste (RFA)
Director Wolfgang Petersen
Guión Wolfgang Petersen, Herman Weigel (Novela: Michael Ende)
Música Giorgio Moroder & Klaus Doldinger
Fotografía Jost Vacano
Reparto Barret Oliver, Noah Hathaway, Moses Gunn, Tami Stronach, Patricia Hayes, Sydney Bromley, Thomas Hill, Deep Roy
Productora Coproduccion Alemania del Oeste-EEUU; Neue Constantin Film / Bavaria Studios / Westdeutscher Rundfunk (WDR)
Género Fantástico. Infantil. Aventuras | Dragones. Cine familiar. Película de culto


Sinopsis
    
Escondido en el desván de su colegio, Bastian devora durante las horas de clase un libro enigmático, ?La historia interminable?, que relata la paulatina destrucción del Reino de Fantasía. Una especie de ?Nada? misteriosa destruye el país y a las criaturas que lo habitan. A medida que avanza en la lectura, Bastian se da cuenta de que la salvación de Fantasía depende de él; de que consiga entrar dentro del libro...



      Formato : Matroska
      File size : 1.31 GiB
      Duration : 1h 33mn
      Overall bit rate : 1 993 Kbps
Idioma : Español Latino
Calidad : BRrip


   Video #1
      ID : 1
      Format : AVC
      Format/Info : Advanced Video Codec
      Format profile : [email protected]
      Format settings, CABAC : Yes
      Format settings, ReFrames : 4 frames
      Codec ID : V_MPEG4/ISO/AVC
      Duration : 1h 33mn
      Bit rate : 1 800 Kbps
      Width : 1 920 pixels
      Height : 800 pixels
      Display aspect ratio : 2.40:1
      Frame rate mode : Variable
      Frame rate : 23.976 fps
      Color space : YUV
      Chroma subsampling : 4:2:0
      Bit depth : 8 bits
      Scan type : Progressive
      Bits/(Pixel*Frame) : 0.049
      Stream size : 1.16 GiB (88%)

  
Audio #2
      ID : 2
      Format : AC-3
      Duration : 1h 33mn
      Bit rate mode : Constant
      Bit rate : 192 Kbps
      Channel(s) : 2 channels
      Channel positions : Front: L R
      Sampling rate : 48.0 KHz
      Bit depth : 16 bits
      Compression mode : Lossy
      Stream size : 129 MiB (10%)
      Language : Spanish










Aca les dejo las otras dos peliculas que faltan de la Historia sin fin







La historia sin fin [1984] [Latino] [1080p] Lite
140 Puntos Score: 9.3/10
Visitas: 3818 Favoritos: 9
Ver los usuarios que votaron...
18 Comentarios La historia sin fin [1984] [Latino] [1080p] Lite
Muchas gracias por las 3 peliculas , salu2  
Gracias capoooooooo x las tres pelis. Un lujo +10
gracias por compartir salu2  
'Chas gracias, va a favoritos para posterior descarga  
excelente aporte sigue adelante      
Gracias por comentar
Gracias bajando!
links resubidos!!!
Excelente aporte +10  
Cita pipe_84: Mostrar

Gracias por comentar y por los puntos aca te dejo la 3er pelicula por si la quieres bajar.

http://www.identi.li/index.php?topic=346318
Muchas GRacias!  
Muchas gracias
hola... tienes el enlace directo por mega te agradecer?
+ 10 en los dos post de hitoria sin fin, por la calidad y el peso, y el servidor y la peliculas excelente aportazo  
hola no se se seria mucha molestia que pudieras resubir los link de la 2 y la 3 te agradeceria muchisimo
Para dejar un comentario Registrate! o.. eres ya usuario? Accede!