La historia sin fin 2 [1990] [Latino] [1080p] Lite



Título original The Neverending Story 2: The Next Chapter
Año 1990
Duración 85 min.
País [Alemania]  Alemania
Director George T. Miller
Guión Karin Howard (Personajes: Michael Ende)
Música Robert Folk (Canciones: Giorgio Moroder)
Fotografía David Connell
Reparto  Jonathan Brandis, Kenny Morrison, Clarissa Burt, John Wesley Shipp, Martin Umbach, Alexandra Johnes
Productora Warner Bros. Pictures
Género Fantástico. Infantil. Aventuras | Secuela. Cine familiar

Sinopsis
    
Continuación de las aventuras del joven Bastian Bux. En esta ocasión Bastian, agobiado por su situación en su vida real, recurre de nuevo al libro mágico.




Formato : MKV
Tamaño : 1.30 GiB
Duration : 1h 29mn
Overall bit rate : 2 078 Kbps
Idioma  : Español Latino
Calidad : BRrip

   Video #1
      ID : 1
      Format : AVC
      Format/Info : Advanced Video Codec
      Format profile : [email protected]
      Format settings, CABAC : Yes
      Format settings, ReFrames : 4 frames
      Codec ID : V_MPEG4/ISO/AVC
      Duration : 1h 29mn
      Bit rate : 1 885 Kbps
      Width : 1 920 pixels
      Height : 800 pixels
      Display aspect ratio : 2.40:1
      Frame rate : 23.976 fps
      Color space : YUV
      Chroma subsampling : 4:2:0
      Bit depth : 8 bits
      Scan type : Progressive
      Bits/(Pixel*Frame) : 0.051
      Stream size : 1.16 GiB (89%)


Audio #2
      ID : 2
      Format : AC-3
      Duration : 1h 29mn
      Bit rate mode : Constant
      Bit rate : 192 Kbps
      Channel(s) : 2 channels
      Channel positions : Front: L R
      Sampling rate : 48.0 KHz
      Bit depth : 16 bits
      Compression mode : Lossy
      Delay relative to video : 4s 300ms
      Stream size : 123 MiB (9%)















Aca les dejo las otras dos peliculas que faltan de la Historia sin fin





La historia sin fin 2 [1990] [Latino] [1080p] Lite
110 Puntos Score: 8.5/10
Visitas: 4077 Favoritos: 11
Ver los usuarios que votaron...
18 Comentarios La historia sin fin 2 [1990] [Latino] [1080p] Lite
gracias por la pelicula
Como la embarraron con la tres, no tienen verguenza. Gracias  
gracias por la peli  
Gracias    
ecxelente aporte.....muchas gracias....

HAY TERCERA PARTE??
NO RECUERDO xD ESTA PELI ES BUENA DE MI INFANCIA ^^
GRACIAS POR LAS 3 PELICULAS SALUDES  
Muchas gracias....  
DE VERDAD GRACIAS AMIGO Y SALUDOS DESDE QUITO
links fuera de linea
Cita mauri_i94: Mostrar

gracias por avisar, la estare resubiendo en los proximos dias.
peliculas resubida, esta vez dejo los links protegidos asi duran mas.
hola @krilin666 resubiras la historia sin 01 van+10
@rugal2015 Si ya la tengo resubida, en unas horas estare actualizando los links.
Tremendo, esta es super dif?
Para dejar un comentario Registrate! o.. eres ya usuario? Accede!