Corre, Lola, corre dvdrip latino Lola rennt


Corre Lola, corre (título original: Lola rennt, literalmente "Lola corre") es una película alemana de 1998, escrita y dirigida por Tom Tykwer y protagonizada por Franka Potente y Moritz Bleibtreu. Presenta tres veces un periodo de tiempo de veinte minutos, en que la acción comienza igual; pero cada vez se dan ciertas diferencias de detalle, que hacen que el final sea completamente diferente (efecto mariposa). Fue un éxito de taquilla en Alemania y obtuvo numerosos premios en todo el mundo. Ha sido muy bien valorada por la crítica y es un excelente ejemplo de ritmo cinematográfico.
Capturas


General
Complete name                            : D:PELICULAS AVICorre, Lola, Corre.avi
Format                                   : AVI
Format/Info                              : Audio Video Interleave
File size                                : 976 MiB
Duration                                 : 1h 19mn
Overall bit rate                         : 1 708 Kbps
Writing application                      : VirtualDubMod 1.5.10.3 | www.virtualdub-fr.org || (build 2550/release)
Writing library                          : VirtualDubMod build 2550/release

Video
ID                                       : 0
Format                                   : MPEG-4 Visual
Format profile                           : Advanced [email protected]
Format settings, BVOP                    : 1
Format settings, QPel                    : No
Format settings, GMC                     : No warppoints
Format settings, Matrix                  : Custom
Codec ID                                 : XVID
Codec ID/Hint                            : XviD
Duration                                 : 1h 19mn
Bit rate                                 : 1 570 Kbps
Width                                    : 720 pixels
Height                                   : 384 pixels
Display aspect ratio                     : 1.85:1
Frame rate                               : 23.976 fps
Color space                              : YUV
Chroma subsampling                       : 4:2:0
Bit depth                                : 8 bits
Scan type                                : Progressive
Compression mode                         : Lossy
Bits/(Pixel*Frame)                       : 0.237
Stream size                              : 897 MiB (92%)
Writing library                          : XviD 1.2.1 (UTC 2008-12-04)

Audio
ID                                       : 1
Format                                   : MPEG Audio
Format version                           : Version 1
Format profile                           : Layer 3
Mode                                     : Joint stereo
Mode extension                           : MS Stereo
Codec ID                                 : 55
Codec ID/Hint                            : MP3
Duration                                 : 1h 19mn
Bit rate mode                            : Constant
Bit rate                                 : 128 Kbps
Channel(s)                               : 2 channels
Sampling rate                            : 44.1 KHz
Compression mode                         : Lossy
Stream size                              : 73.1 MiB (7%)
Alignment                                : Split accross interleaves
Interleave, duration                     : 42 ms (1.00 video frame)
Interleave, preload duration             : 500 ms
Writing library                          : LAME3.99r
Encoding settings                        : -m j -V 4 -q 0 -lowpass 17 -b 128



Corre, Lola, corre dvdrip latino Lola rennt
10 Puntos Score: 10/10
Visitas: 2350 Favoritos: 5
Ver los usuarios que votaron...
9 Comentarios Corre, Lola, corre dvdrip latino Lola rennt
graciasssssssss bajandooooooooooooo
siempre la he querido ver
buenisima pelicula
Share esta off.
@AndriusX creo que si, ojala no le pase lo que a firedrive hay que esperar
@AndriusX a esperar no queda de otra, mega me anda del carajo y ahora shared
links 4 y 5 caidos...  
Para dejar un comentario Registrate! o.. eres ya usuario? Accede!