La fuerza del cariño 1 y 2 DVDrip latino Shirley M

La Fuerza del Cariño cautivó tanto al público como a la crítica gracias a la convincente y profunda historia de dos personajes deliciosos, una madre y su hija, interpretados magistralmente por Shirley MacLaine y Debra Winger. El directo James L. Brooks retrata de forma prodigiosa una relación que abarca tres décadas y que combina situaciones muy divertidas con otras profundamente dramáticas. Jack Nocholson brinda una actuación repleta de comicidad como el vecino de MacLaine, un astronauta retirado borrachín y ligón.

CAPTURAS - 

LA FUERZA DEL CARIÑO DVDRIP LATINO.avi
Format                         : AVI
Format/Info                    : Audio Video Interleave
File size                      : 1.44 GiB
Duration                       : 2h 11mn
Overall bit rate               : 1 567 Kbps
Writing application            : VirtualDubMod 1.5.10.2 (build 2540/release)
Writing library                : Boilsoft AVI tool build 1/release

Video
ID                             : 0
Format                         : MPEG-4 Visual
Format profile                 : Advanced [email protected]
Format settings, BVOP          : Yes
Format settings, QPel          : No
Format settings, GMC           : No warppoints
Format settings, Matrix        : Custom
Codec ID                       : XVID
Codec ID/Hint                  : XviD
Duration                       : 2h 11mn
Bit rate                       : 1 429 Kbps
Width                          : 720 pixels
Height                         : 416 pixels
Display aspect ratio           : 1.731
Frame rate                     : 23.976 fps
Color space                    : YUV
Chroma subsampling             : 4:2:0
Bit depth                      : 8 bits
Scan type                      : Progressive
Compression mode               : Lossy
Bits/(Pixel*Frame)             : 0.199
Stream size                    : 1.32 GiB (91%)
Writing library                : XviD 64

Audio
ID                             : 1
Format                         : MPEG Audio
Format version                 : Version 1
Format profile                 : Layer 3
Mode                           : Joint stereo
Mode extension                 : MS Stereo
Codec ID                       : 55
Codec ID/Hint                  : MP3
Duration                       : 2h 11mn
Bit rate mode                  : Constant
Bit rate                       : 128 Kbps
Channel(s)                     : 2 channels
Sampling rate                  : 48.0 KHz
Compression mode               : Lossy
Stream size                    : 121 MiB (8%)
Alignment                      : Aligned on interleaves
Interleave, duration           : 42 ms (1.00 video frame)
Interleave, preload duration   : 504 ms





Título original
The Evening Star
Año
1996
Duración
129 min.
País
 Estados Unidos
Director
Robert Harling
Guión
Robert Harling (Novela: Larry McMurtry)
Música
William Ross
Fotografía
Don Burgess
Reparto
Shirley MacLaine, Bill Paxton, Juliette Lewis, Miranda Richardson, Jack Nicholson, Scott Wolf, Ben Johnson, Mackenzie Astin, Donald Moffat, Jennifer Grant
Productora
Paramount Pictures
Género
Comedia. Drama | Secuela
Sinopsis
Con el paso de los años, Aurora se plantea si ha educado bien a sus tres nietos después de la muerte de su madre. El mayor cumple condena por tenencia de drogas, la pequeña se enamora de un sinvergüenza y el mediano vive con una joven de la que tiene un hijo. A pesar de todo lo que se ha sacrificado por ellos, los tres parecen odiarla


Capturas



Format                                   : AVI
Format/Info                              : Audio Video Interleave
File size                                : 1.43 GiB
Duration                                 : 2h 8mn
Overall bit rate                         : 1 583 Kbps
Writing application                      : VirtualDubMod 1.5.10.2 (build 2540/release)
Writing library                          : VirtualDubMod build 2540/release

Video
ID                                       : 0
Format                                   : MPEG-4 Visual
Format profile                           : Advanced [email protected]
Format settings, BVOP                    : 1
Format settings, QPel                    : No
Format settings, GMC                     : No warppoints
Format settings, Matrix                  : Custom
Codec ID                                 : XVID
Codec ID/Hint                            : XviD
Duration                                 : 2h 8mn
Bit rate                                 : 1 382 Kbps
Width                                    : 720 pixels
Height                                   : 416 pixels
Display aspect ratio                     : 1.731
Frame rate                               : 23.976 fps
Color space                              : YUV
Chroma subsampling                       : 4:2:0
Bit depth                                : 8 bits
Scan type                                : Progressive
Compression mode                         : Lossy
Bits/(Pixel*Frame)                       : 0.192
Stream size                              : 1.24 GiB (87%)
Writing library                          : XviD 64

Audio
ID                                       : 1
Format                                   : AC-3
Format/Info                              : Audio Coding 3
Mode extension                           : CM (complete main)
Format settings, Endianness              : Big
Codec ID                                 : 2000
Duration                                 : 2h 8mn
Bit rate mode                            : Constant
Bit rate                                 : 192 Kbps
Channel count                            : 2 channels
Channel positions                        : Front: L R
Sampling rate                            : 48.0 KHz
Bit depth                                : 16 bits
Compression mode                         : Lossy
Stream size                              : 177 MiB (12%)
Alignment                                : Split accross interleaves
Interleave, duration                     : 42 ms (1.00 video frame)
Interleave, preload duration             : 500 ms



La fuerza del cariño 1 y 2 DVDrip latino Shirley M
45 Puntos Score: 9/10
Visitas: 2020 Favoritos: 3
Ver los usuarios que votaron...
17 Comentarios La fuerza del cariño 1 y 2 DVDrip latino Shirley M
Gracias.. Bajando
gracias por el aporte,,,,,,link activos, es un error de jdownloader, los baje directamente, gracias.
Buen aporte men me qued?
No puedo instalar Jdownloader en mi computadora y necesitar?
gracias por las peliculas  
Cualquier persona que me pase los links directos de La fuerza del cari?
Muy amable de tu parte Juan, ya la baj?
excelenteeeeeeeeeeeeee....MIL GRACIAS...............
Descargadas las dos y disfrutando,,MUCHAS GRACIAS.
gracias por tu aporte
Para dejar un comentario Registrate! o.. eres ya usuario? Accede!