La historia sin fin 3 [1994] [Latino] [720p]


 
 Título original : The NeverEnding Story III - Escape From Fantasia
 Año : 1994
 País : [Alemania]
 Director : Peter MacDonald
 Guión : Jeff Lieberman (Personajes: Michael Ende)
 Reparto : Jason James Richter, Melody Kay, Jack Black, Carole Finn, Ryan Bollman, Freddie Jones, Julie Cox, Moya Brady, Tony Robinson, Nicole Parker
 Productora : Cinevox Filmproduktion GmbH / Dieter Geissler Filmproduktion / Studio Babelsberg / Warner Bros. Pictures
 Género : Fantástico. Infantil. Aventuras | Secuela. Cine familiar
 
 
 Sinopsis
 
 El deseo de Bastian de tener un hermano se convierte finalmente en realidad cuando su padre anuncia que se va a volver a casar. Desgraciadamente, Bastian no congenia con su hermanastra Nicole. Sus problemas aumentan cuando se convierte en víctima de Los Bestias, una banda de fanfarrones de su nuevo colegio. Ocultándose de ellos en la biblioteca, Bastian encuentra por casualidad su libro preferido, ?La historia interminable; se esconde entonces en un cuarto oscuro y pide un deseo: regresar a Fantasía. Desconcertados por su desaparición, Los Bestias deciden abandonar su búsqueda, pero descubren el libro en el suelo. Slip, el líder de la pandilla, comienza a leerlo y se da cuenta del poder que posee. Cuando deciden escribir en las páginas vacías su propia historia, Fantasía se transforma en el reino de la suciedad y la destrucción. La Emperatriz niña le ordena a Bastian que vuelva al mundo real. Inesperadamente, un grupo de habitantes de Fantasía, Falkor, el dragón de la Suerte, los Gnomos Engywook y su esposa Urgl, un árbol llamado Bark Troll, y el pequeño gigante Comerrocas, acompañan a Bastian en su regreso, pero acaban extraviándose. Vivirán entonces una serie de divertidas aventuras al tiempo que tratan de reunirse con Bastian. Cuando Los Bestias comienzan a utilizar sus malvados poderes, transforman el mundo real en un caos. Bastian pide a Nicole, su hermanastra, que le ayude. Al principio muestra poco interés, pero finalmente se reúne con él para recuperar ?La historia interminable?, antes de que Los Bestias conviertan todo en un absoluto desastre.
 
 
 
 
 
 Format : MKV
 Tamaño : 1.10 GiB
 Duracion : 1h 31mn
 Overall bit rate : 1 725 Kbps
 Calidad : BRrip
 Idioma : Español Latino (capturado de vhs gracias danilton)
 
 ID : 1
 Format : AVC
 Format/Info : Advanced Video Codec
 Format profile : [email protected]
 Format settings, CABAC : Yes
 Format settings, ReFrames : 4 frames
 Codec ID : V_MPEG4/ISO/AVC
 Duration : 1h 31mn
 Bit rate : 1 533 Kbps
 Width : 1 280 pixels
 Height : 688 pixels
 Display aspect ratio : 1.85:1
 Frame rate : 25.000 fps
 Color space : YUV
 Chroma subsampling : 4:2:0
 Bit depth : 8 bits
 Scan type : Progressive
 Bits/(Pixel*Frame) : 0.070
 Stream size : 978 MiB (87%)
 
 Audio #2
 ID : 2
 Format : AC-3
 Format/Info : Audio Coding 3
 Mode extension : CM (complete main)
 Format settings, Endianness : Big
 Codec ID : A_AC3
 Duration : 1h 31mn
 Bit rate mode : Constant
 Bit rate : 192 Kbps
 Channel(s) : 2 channels
 Channel positions : Front: L R
 Sampling rate : 48.0 KHz
 Bit depth : 16 bits
 Compression mode : Lossy
 Delay relative to video : 16ms
 Stream size : 125 MiB (11%)
 Title : Latino
 Language : Spanish
 Default : Yes
 Forced : Yes
 
 
 
 



LINKS MEGA
 

 
 
 
 
Aca les dejo las otras dos peliculas que faltan de la Historia sin fin









 
La historia sin fin 3 [1994] [Latino] [720p]
85 Puntos Score: 9.4/10
Visitas: 3821 Favoritos: 14
Ver los usuarios que votaron...
27 Comentarios La historia sin fin 3 [1994] [Latino] [720p]
No veo capturas...
waw no sabia q eran 3!!!
tengo las 2 primeras en dvd ,a ver si consigo la tercera en ese formato... gracias x el aporte!
gracias bro!!! arregla tu post!!!
Cita roninkaila: Mostrar
Cita chimans: Mostrar
Yo ni siquiera sabia que hab?
si no hay capturas no bajo
Cita chimans: Mostrar

en dvd dificil que la consigas y si la conseguis no tiene latino. gracias por comentar

ya arregle las imagenes que no se veian
que buen aporte que te mandaste man y las capturas si se ven
me sumo al comentario, nunca supe que eran 3,  la bajo para ver que tal ,aunque la 1 sigue siendo la mejor, saludos y gracias
Cita fhollken: Mostrar

No la mires con tantas expectativas ni comparable con la 1. Esta no esta basada en el libro es como un spin off.
Ahora ya las veo, cuantas versiones hay? solo conozco una donde se derrumba el castillo y luego pelea con el lobo xD.
Exelente compa, gracias por compartir
Estaria genial que subas la 2 de ser posible en calidad de este tipo  
Saludos
Gracias por compartir +10
Cita sdcaza_B_: Mostrar

Si puedo las subo.
Me uno a la peticion de la 2 en esta misma calidad!!! muchas gracias por compartir!!!
La 1 y la 2 estan basada en el primer libro, ya que en la mitad del libro sucede lo que en la pelicula 1 y en la segunda mitad lo que pasa en la segunda pelicula. la tercera es muy mala.
Gracias capoooooooo x las tres pelis. Un lujo +10
Gracias por la peli  
Gracias por la pel?
Muchas gracias....  
Saludos.
Agradezco este valioso aporte, pero les indico amigos de "IDENTI" y a "krilin666" que los enlaces no funcan, es decir, estan fuera de linea o caidos. POR FAVOR, si pudieran repararlos. Por su valiosa atenci?
Cita mar_cris: Mostrar
sinceramente no sabia la existencia del 2 y el 3....pero gracias a ti las podre disfrutar muchas gracias...no tengo puntos ya que estoy en cero...pero te aseguro que te los daria sin pensarlo..
Ojala anden los links, muchas gracias, la estaba buscando en hd :3
Para dejar un comentario Registrate! o.. eres ya usuario? Accede!