El último gran héroe Dvdrip latino Schwarzenegger

Last Action Hero (en español El último gran héroe o El último héroe en acción) es una película cómica de acción de 1993 dirigida por John McTiernan. El film, que representa una sátira del género, cuenta la historia de Danny, un joven al que le encantan las películas de acción, particularmente las de su héroe Jack Slater. La película está protagonizada por Arnold Schwarzenegger como el héroe ficticio de acción Jack Slater y él mismo a la vez.
Capturas


El Último Gran Héroe.avi
Format                                   : AVI
Format/Info                              : Audio Video Interleave
File size                                : 1.54 GiB
Duration                                 : 2h 10mn
Overall bit rate                         : 1 681 Kbps
Writing application                      : VirtualDubMod 1.5.10.3 | www.virtualdub-fr.org || (build 2550/release)
Writing library                          : VirtualDubMod build 2550/release

Video
ID                                       : 0
Format                                   : MPEG-4 Visual
Format profile                           : Advanced [email protected]
Format settings, BVOP                    : 1
Format settings, QPel                    : No
Format settings, GMC                     : No warppoints
Format settings, Matrix                  : Custom
Codec ID                                 : XVID
Codec ID/Hint                            : XviD
Duration                                 : 2h 10mn
Bit rate                                 : 1 543 Kbps
Width                                    : 720 pixels
Height                                   : 416 pixels
Display aspect ratio                     : 1.731
Frame rate                               : 23.976 fps
Color space                              : YUV
Chroma subsampling                       : 4:2:0
Bit depth                                : 8 bits
Scan type                                : Progressive
Compression mode                         : Lossy
Bits/(Pixel*Frame)                       : 0.215
Stream size                              : 1.41 GiB (92%)
Writing library                          : XviD 1.2.1 (UTC 2008-12-04)

Audio
ID                                       : 1
Format                                   : MPEG Audio
Format version                           : Version 1
Format profile                           : Layer 3
Mode                                     : Joint stereo
Mode extension                           : MS Stereo
Codec ID                                 : 55
Codec ID/Hint                            : MP3
Duration                                 : 2h 10mn
Bit rate mode                            : Constant
Bit rate                                 : 128 Kbps
Channel(s)                               : 2 channels
Sampling rate                            : 48.0 KHz
Compression mode                         : Lossy
Stream size                              : 120 MiB (8%)
Alignment                                : Split accross interleaves
Interleave, duration                     : 42 ms (1.00 video frame)
Interleave, preload duration             : 500 ms
Writing library                          : LAME3.99r
Encoding settings                        : -m j -V 4 -q 0 -lowpass 17 -b 128


El último gran héroe Dvdrip latino Schwarzenegger
20 Puntos Score: 10/10
Visitas: 2777 Favoritos: 0
Ver los usuarios que votaron...
12 Comentarios El último gran héroe Dvdrip latino Schwarzenegger
Gracias por el gran aporte!!!   ?
faltan archivos solo estan 5?
HOLA AMIGO ESTA ES UNA EXELENTE PELI PERO SI PARESE QUE LE FALTAN ARCHIVOS SOLO MARCA 5 Y PESO TOTAL DE 250MB  
@Angeldesar @boster2012 @ciscoit @josiosi estan todos los links, los demas son en shared con my pony los detecta todos,si no pueden al rato pongo los links que faltan sin en jd
excelente aporte como siempre +10  
@juanw200 Gracias por la info, en espera de los enlaces!!!  
@Angeldesar amigo te funcionan los enlaces o no
Hola tengo problemas con la parte 15 y 29, de antemano gracias
que problema, no descarga o error de [email protected]
Cita Angeldesar: Mostrar
@juanw200 Amigo no me cargan los enlaces en Jdownloader... Te agradecer?
Para dejar un comentario Registrate! o.. eres ya usuario? Accede!