demoniol
"yupi yupi yea"

south park español temporada 18 3/??

south park  temporada 18 español


si le traigo los primeros capitulos en español con buena calidad pesan poco






capitulo 1 de esta temporada tan graciosa

servidores que voy subir :  zippyshare

name: 18sptr .rar

peso: 83,2 MB


info del video :

Format                                   : MPEG-4
Format profile                           : Base Media
Codec ID                                 : isom
File size                                : 83.6 MiB
Duration                                 : 22mn 1s
Overall bit rate mode                    : Variable
Overall bit rate                         : 531 Kbps
Encoded date                             : UTC 2014-10-09 08:43:33
Tagged date                              : UTC 2014-10-09 08:43:33

Video
ID                                       : 1
Format                                   : AVC
Format/Info                              : Advanced Video Codec
Format profile                           : [email protected]
Format settings, CABAC                   : Yes
Format settings, ReFrames                : 5 frames
Codec ID                                 : avc1
Codec ID/Info                            : Advanced Video Coding
Duration                                 : 22mn 1s
Bit rate                                 : 405 Kbps
Maximum bit rate                         : 3 541 Kbps
Width                                    : 720 pixels
Height                                   : 404 pixels
Display aspect ratio                     : 16:9
Frame rate mode                          : Constant
Frame rate                               : 25.000 fps
Color space                              : YUV
Chroma subsampling                       : 4:2:0
Bit depth                                : 8 bits
Scan type                                : Progressive
Bits/(Pixel*Frame)                       : 0.056
Stream size                              : 63.8 MiB (76%)
Title                                    : FCC 4ever
Writing library                          : x264 core 142 r2479 dd79a61
Encoding settings                        : cabac=1 / ref=5 / deblock=1:0:0 / analyse=0x3:0x113 / me=umh / subme=8 / psy=1 / psy_rd=1.00:0.00 / mixed_ref=1 / me_range=16 / chroma_me=1 / trellis=1 / 8x8dct=1 / cqm=0 / deadzone=21,11 / fast_pskip=1 / chroma_qp_offset=-2 / threads=12 / lookahead_threads=2 / sliced_threads=0 / nr=0 / decimate=1 / interlaced=0 / bluray_compat=0 / constrained_intra=0 / bframes=3 / b_pyramid=2 / b_adapt=2 / b_bias=0 / direct=3 / weightb=1 / open_gop=0 / weightp=2 / keyint=250 / keyint_min=25 / scenecut=40 / intra_refresh=0 / rc_lookahead=50 / rc=crf / mbtree=1 / crf=20.0 / qcomp=0.60 / qpmin=0 / qpmax=69 / qpstep=4 / ip_ratio=1.40 / aq=1:1.00
Encoded date                             : UTC 2014-10-09 08:43:33
Tagged date                              : UTC 2014-10-09 08:43:34
Matrix coefficients                      : BT.709

Audio
ID                                       : 2
Format                                   : AAC
Format/Info                              : Advanced Audio Codec
Format profile                           : LC
Codec ID                                 : 40
Duration                                 : 22mn 1s
Bit rate mode                            : Variable
Bit rate                                 : 122 Kbps
Maximum bit rate                         : 172 Kbps
Channel(s)                               : 2 channels
Channel positions                        : Front: L R
Sampling rate                            : 48.0 KHz
Compression mode                         : Lossy
Stream size                              : 19.2 MiB (23%)
Title                                    : FCC 4ever
Language                                 : Spanish
Encoded date                             : UTC 2014-10-09 08:43:34
Tagged date                              : UTC 2014-10-09 08:43:34


zippyshare


 


capitulo dos

servidores: zippyshare

name: 018slop .rar

peso: 85,3 MB


Format                                   : MPEG-4
Format profile                           : Base Media
Codec ID                                 : isom
File size                                : 85.7 MiB
Duration                                 : 21mn 58s
Overall bit rate mode                    : Variable
Overall bit rate                         : 545 Kbps
Encoded date                             : UTC 2014-10-16 08:31:32
Tagged date                              : UTC 2014-10-16 08:31:32

Video
ID                                       : 1
Format                                   : AVC
Format/Info                              : Advanced Video Codec
Format profile                           : [email protected]
Format settings, CABAC                   : Yes
Format settings, ReFrames                : 5 frames
Codec ID                                 : avc1
Codec ID/Info                            : Advanced Video Coding
Duration                                 : 21mn 58s
Bit rate                                 : 415 Kbps
Maximum bit rate                         : 3 413 Kbps
Width                                    : 720 pixels
Height                                   : 404 pixels
Display aspect ratio                     : 16:9
Frame rate mode                          : Constant
Frame rate                               : 25.000 fps
Color space                              : YUV
Chroma subsampling                       : 4:2:0
Bit depth                                : 8 bits
Scan type                                : Progressive
Bits/(Pixel*Frame)                       : 0.057
Stream size                              : 65.2 MiB (76%)
Title                                    : FCC 4ever
Writing library                          : x264 core 142 r2479 dd79a61
Encoding settings                        : cabac=1 / ref=5 / deblock=1:0:0 / analyse=0x3:0x113 / me=umh / subme=8 / psy=1 / psy_rd=1.00:0.00 / mixed_ref=1 / me_range=16 / chroma_me=1 / trellis=1 / 8x8dct=1 / cqm=0 / deadzone=21,11 / fast_pskip=1 / chroma_qp_offset=-2 / threads=12 / lookahead_threads=2 / sliced_threads=0 / nr=0 / decimate=1 / interlaced=0 / bluray_compat=0 / constrained_intra=0 / bframes=3 / b_pyramid=2 / b_adapt=2 / b_bias=0 / direct=3 / weightb=1 / open_gop=0 / weightp=2 / keyint=250 / keyint_min=25 / scenecut=40 / intra_refresh=0 / rc_lookahead=50 / rc=crf / mbtree=1 / crf=20.0 / qcomp=0.60 / qpmin=0 / qpmax=69 / qpstep=4 / ip_ratio=1.40 / aq=1:1.00
Encoded date                             : UTC 2014-10-16 08:31:32
Tagged date                              : UTC 2014-10-16 08:31:34
Matrix coefficients                      : BT.709

Audio
ID                                       : 2
Format                                   : AAC
Format/Info                              : Advanced Audio Codec
Format profile                           : LC
Codec ID                                 : 40
Duration                                 : 21mn 58s
Bit rate mode                            : Variable
Bit rate                                 : 126 Kbps
Maximum bit rate                         : 167 Kbps
Channel(s)                               : 2 channels
Channel positions                        : Front: L R
Sampling rate                            : 48.0 KHz
Compression mode                         : Lossy
Stream size                              : 19.9 MiB (23%)
Title                                    : FCC 4ever
Language                                 : Spanish
Encoded date                             : UTC 2014-10-16 08:31:33
Tagged date                              : UTC 2014-10-16 08:31:34




culsutar por mp 
capitulo 3
servidores: zippyshare
name: pop18op3 .rar
peso: 72,9 MB
Format                                   : MPEG-4
Format profile                           : Base Media
Codec ID                                 : isom
File size                                : 73.3 MiB
Duration                                 : 22mn 0s
Overall bit rate mode                    : Variable
Overall bit rate                         : 466 Kbps
Encoded date                             : UTC 2014-10-22 23:36:29
Tagged date                              : UTC 2014-10-22 23:36:29

Video
ID                                       : 1
Format                                   : AVC
Format/Info                              : Advanced Video Codec
Format profile                           : [email protected]
Format settings, CABAC                   : Yes
Format settings, ReFrames                : 5 frames
Codec ID                                 : avc1
Codec ID/Info                            : Advanced Video Coding
Duration                                 : 22mn 0s
Bit rate                                 : 329 Kbps
Maximum bit rate                         : 1 751 Kbps
Width                                    : 720 pixels
Height                                   : 404 pixels
Display aspect ratio                     : 16:9
Frame rate mode                          : Constant
Frame rate                               : 25.000 fps
Color space                              : YUV
Chroma subsampling                       : 4:2:0
Bit depth                                : 8 bits
Scan type                                : Progressive
Bits/(Pixel*Frame)                       : 0.045
Stream size                              : 51.8 MiB (71%)
Title                                    : FCC 4ever
Writing library                          : x264 core 142 r2479 dd79a61
Encoding settings                        : cabac=1 / ref=5 / deblock=1:0:0 / analyse=0x3:0x113 / me=umh / subme=8 / psy=1 / psy_rd=1.00:0.00 / mixed_ref=1 / me_range=16 / chroma_me=1 / trellis=1 / 8x8dct=1 / cqm=0 / deadzone=21,11 / fast_pskip=1 / chroma_qp_offset=-2 / threads=12 / lookahead_threads=2 / sliced_threads=0 / nr=0 / decimate=1 / interlaced=0 / bluray_compat=0 / constrained_intra=0 / bframes=3 / b_pyramid=2 / b_adapt=2 / b_bias=0 / direct=3 / weightb=1 / open_gop=0 / weightp=2 / keyint=250 / keyint_min=25 / scenecut=40 / intra_refresh=0 / rc_lookahead=50 / rc=crf / mbtree=1 / crf=20.0 / qcomp=0.60 / qpmin=0 / qpmax=69 / qpstep=4 / ip_ratio=1.40 / aq=1:1.00
Encoded date                             : UTC 2014-10-22 23:36:29
Tagged date                              : UTC 2014-10-22 23:36:30
Matrix coefficients                      : BT.709

Audio
ID                                       : 2
Format                                   : AAC
Format/Info                              : Advanced Audio Codec
Format profile                           : LC
Codec ID                                 : 40
Duration                                 : 22mn 0s
Bit rate mode                            : Variable
Bit rate                                 : 132 Kbps
Maximum bit rate                         : 168 Kbps
Channel(s)                               : 2 channels
Channel positions                        : Front: L R
Sampling rate                            : 48.0 KHz
Compression mode                         : Lossy
Stream size                              : 20.9 MiB (28%)
Title                                    : FCC 4ever
Language                                 : Spanish
Encoded date                             : UTC 2014-10-22 23:36:30
Tagged date                              : UTC 2014-10-22 23:36:30



zippyshare



si caen los link avirsame    post aztulizandose  cuando saquen capitulo nuevo 

south park español temporada 18 3/??
8 Puntos Score: 4/10
Visitas: 1124 Favoritos: 1
Ver los usuarios que votaron...
7 Comentarios south park español temporada 18 3/??
@YOONA507 @Angryp0d @T.Simpsons  gracias por cometar al post y los puntillos estoy esperando que salga capitulo tres  en la television para gravarlo
@T.Simpsons  nuevos capitulos  
Para dejar un comentario Registrate! o.. eres ya usuario? Accede!