Before you Say i Do 2009 Mega Ingles

Buen dia amigos, les traigo esta aportación/ayuda, esta película la conseguí pero no encuentro los subs o el audio latino por si alguien cuenta con ello de todos modos aquí se las dejo






Sinopsis


George y Jane llevan ya un tiempo siendo novios y él está ansioso por casarse. Jane, sin embargo, viene de un amargo matrimonio en el que fue engañada por su ex marido con varias mujeres, por lo que se muestra renuente. Desesperado, George desearía haberla conocido antes de que se casara. Sus deseos se harán realidad, pues después de un accidente de coche despierta 10 años atrás en el tiempo. 






Video
ID                                       : 0
Format                                   : MPEG-4 Visual
Format profile                           : Advanced [email protected]
Format settings, BVOP                    : 2
Format settings, QPel                    : No
Format settings, GMC                     : No warppoints
Format settings, Matrix                  : Default (H.263)
Codec ID                                 : XVID
Codec ID/Hint                            : XviD
Duration                                 : 1h 27mn
Bit rate                                 : 958 Kbps
Width                                    : 592 pixels
Height                                   : 320 pixels
Display aspect ratio                     : 1.85:1
Frame rate                               : 23.976 fps
Color space                              : YUV
Chroma subsampling                       : 4:2:0
Bit depth                                : 8 bits
Scan type                                : Progressive
Compression mode                         : Lossy
Bits/(Pixel*Frame)                       : 0.211
Stream size                              : 597 MiB (85%)
Writing library                          : XviD 1.2.1 (UTC 2008-12-04)

Audio
ID                                       : 1
Format                                   : MPEG Audio
Format version                           : Version 1
Format profile                           : Layer 3
Mode                                     : Joint stereo
Codec ID                                 : 55
Codec ID/Hint                            : MP3
Duration                                 : 1h 27mn
Bit rate mode                            : Variable
Bit rate                                 : 155 Kbps
Minimum bit rate                         : 96.0 Kbps
Channel count                            : 2 channels
Sampling rate                            : 48.0 KHz
Compression mode                         : Lossy
Stream size                              : 96.1 MiB (14%)
Alignment                                : Aligned on interleaves
Interleave, duration                     : 24 ms (0.58 video frame)
Interleave, preload duration             : 579 ms
Writing library                          : LAME3.95 
Encoding settings                        : -m j -V 2 -q 3 -lowpass 19 --vbr-new -b 96



Gracias y saludos
Before you Say i Do 2009 Mega Ingles
5 Puntos Score: 2.5/10
Visitas: 1305 Favoritos: 1
Ver los usuarios que votaron...
2 Comentarios Before you Say i Do 2009 Mega Ingles
Estara buena?
A mi esposa le gust?
Para dejar un comentario Registrate! o.. eres ya usuario? Accede!