Overboard - Fuera de borda 1987 Spa/Eng/Por Mega



Overboard es una película de 1987, comedia romántica protagonizada por Goldie Hawn y Kurt Russell.[sup]1[/sup] Fue dirigida por Garry Marshall, producida por el actor Roddy McDowall e inspirada en la película de 1974 Swept AwayOverboard fue adaptada en la serie de Corea del Sur, Couple or Trouble.[/size]


Sinopsis


Joanna Stayton es una rica millonaria y mocosa y Dean Proffitt es un carpintero que lucha tratando de seguir adelante con sus cuatro hijos. Después de hacer un trabajo que Joanna se encuentra insatisfecha, ella se niega a pagarle, luego Joanna tiene amnesia y Dean decide venganse al decir que es su "esposa" y la madre de sus cuatro hijos.




Datos tecnicos

Video

ID                                       : 1

Format                                   : AVC

Format/Info                              : Advanced Video Codec

Format profile                           : [email protected]

Format settings, CABAC                   : Yes

Format settings, ReFrames                : 2 frames

Codec ID                                 : V_MPEG4/ISO/AVC

Bit rate                                 : 860 Kbps

Width                                    : 718 pixels

Height                                   : 342 pixels

Display aspect ratio                     : 1.85:1

Original display aspect ratio            : 1.85:1

Frame rate mode                          : Variable

Original frame rate                      : 23.976 fps

Color space                              : YUV

Chroma subsampling                       : 4:2:0

Bit depth                                : 8 bits

Scan type                                : Progressive


Audio #1

ID                                       : 2

Format                                   : AC-3

Format/Info                              : Audio Coding 3

Format profile                           : Dolby Digital

Mode extension                           : CM (complete main)

Format settings, Endianness              : Big

Codec ID                                 : A_AC3

Duration                                 : 1h 52mn

Bit rate mode                            : Constant

Bit rate                                 : 192 Kbps

Channel count                            : 2 channels

Channel positions                        : Front: L R

Sampling rate                            : 48.0 KHz

Bit depth                                : 16 bits

Compression mode                         : Lossy

Stream size                              : 154 MiB (13%)

Language                                 : English

Default                                  : Yes


Audio #2

ID                                       : 3

Format                                   : AC-3

Format/Info                              : Audio Coding 3

Mode extension                           : CM (complete main)

Format settings, Endianness              : Big

Codec ID                                 : A_AC3

Duration                                 : 1h 52mn

Bit rate mode                            : Constant

Bit rate                                 : 192 Kbps

Channel count                            : 2 channels

Channel positions                        : Front: L R

Sampling rate                            : 48.0 KHz

Bit depth                                : 16 bits

Compression mode                         : Lossy

Stream size                              : 154 MiB (13%)

Language                                 : Spanish

Default                                  : No


Audio #3

ID                                       : 4

Format                                   : AC-3

Format/Info                              : Audio Coding 3

Mode extension                           : CM (complete main)

Format settings, Endianness              : Big

Codec ID                                 : A_AC3

Duration                                 : 1h 52mn

Bit rate mode                            : Constant

Bit rate                                 : 192 Kbps

Channel count                            : 2 channels

Channel positions                        : Front: L R

Sampling rate                            : 48.0 KHz

Bit depth                                : 16 bits

Compression mode                         : Lossy

Stream size                              : 154 MiB (13%)

Language                                 : Portuguese

Default                                  : No





Fuente: Wikipedia
Datos tecnicos: MediaInfo
Thumbnails: MediaPlayer Classic


descargar peliculas - descargar programas
35 Puntos Score: 7/10
Visitas: 3792 Favoritos: 4
Ver los usuarios que votaron...
19 Comentarios Overboard - Fuera de borda 1987 Spa/Eng/Por Mega
GRCIAS AMIGO A?
@epalada @davenger Gracias por sus comentarios!
muchas gracias amigo
muy buena peli...
Asi va a aprender jajajajajja  
Excelente comedia, muchas gracias. + 10  
a todos gracias por los comentarios!
gracias excelente pelicula
Se agradece amigo   , de casualidad no tendras mi casa tu casa? (HouseSitter) es de mis favoritas de la Goldie, saludos
Cita Picmas: Mostrar
Gracias por pasarte, no amig no la tengo, de hecho esta me la encontre por ahi y la quise compartir.
amigo un favor... puedes poner el link aca... no me funciona el jdownloader... porfaaaaaaaaa
actualiza tu jdownloader, a mi si me funciona... y pues no quiero correr el riesgo de que eliminen los links al ponerlos publicos.
gracias por compartir esta pelicula
Gracias Hermano....
Para dejar un comentario Registrate! o.. eres ya usuario? Accede!
Facebook Identi