New girl temporada 3 capitulo 18 a 23 audio latino


Aqui les dejo los ultimos capitulos de la temporada 18 al 23
La serie comienza con Jessica «Jess» Day (interpretada por Zooey Deschanel), una mujer peculiar y alegre de casi treinta años que da clases en una escuela primaria local de Los Ángeles. Jess comienza a buscar un nuevo lugar para vivir después de descubrir que su novio la engaña. Al ver un anuncio de un nuevo compañero de cuarto en Craigslist, se muda con tres jóvenes: Nick, Schmidt y Coach. Muy poco después de su traslado, Coach se va, y es sustituido por Winston, otro joven que había vivido en el apartamento con Nick y Schmidt. 
Capturas


General
Complete name                            : C:Documents and SettingsJUANConfiguración localTempRar$DRa0.942NEW GIRL 3X18 LATINO.avi
Format                                   : AVI
Format/Info                              : Audio Video Interleave
File size                                : 181 MiB
Duration                                 : 21mn 41s
Overall bit rate                         : 1 164 Kbps
Movie name                               : NEW GIRL 3X18 LATINO
Director                                 : JUANW200
Genre                                    : COMEDIA
Writing application                      : VirtualDubMod 1.5.10.3 | www.virtualdub-fr.org || (build 2550/release)
Original source form/Name                : NEW GIRL TEMPORADA 3
Copyright                                : JUANW200
Comment                                  : http://www.identi.li/index.php?action=profile;user=juanw200  I D E N T I

Video
ID                                       : 0
Format                                   : MPEG-4 Visual
Format profile                           : Advanced [email protected]
Format settings, BVOP                    : 1
Format settings, QPel                    : No
Format settings, GMC                     : No warppoints
Format settings, Matrix                  : Custom
Codec ID                                 : XVID
Codec ID/Hint                            : XviD
Duration                                 : 21mn 41s
Bit rate                                 : 1 026 Kbps
Width                                    : 720 pixels
Height                                   : 416 pixels
Display aspect ratio                     : 1.731
Frame rate                               : 23.976 fps
Color space                              : YUV
Chroma subsampling                       : 4:2:0
Bit depth                                : 8 bits
Scan type                                : Progressive
Compression mode                         : Lossy
Bits/(Pixel*Frame)                       : 0.143
Stream size                              : 159 MiB (88%)
Writing library                          : XviD 1.2.1 (UTC 2008-12-04)

Audio
ID                                       : 1
Format                                   : MPEG Audio
Format version                           : Version 1
Format profile                           : Layer 3
Mode                                     : Joint stereo
Mode extension                           : MS Stereo
Codec ID                                 : 55
Codec ID/Hint                            : MP3
Duration                                 : 21mn 41s
Bit rate mode                            : Constant
Bit rate                                 : 128 Kbps
Channel(s)                               : 2 channels
Sampling rate                            : 44.1 KHz
Compression mode                         : Lossy
Stream size                              : 19.9 MiB (11%)
Alignment                                : Split accross interleaves
Interleave, duration                     : 42 ms (1.00 video frame)
Interleave, preload duration             : 500 ms
Writing library                          : LAME3.99r
Encoding settings                        : -m j -V 4 -q 0 -lowpass 17 -b 128
Language                                 : ESPAÑOL LATINO



New girl temporada 3 capitulo 18 a 23 audio latino
60 Puntos Score: 10/10
Visitas: 2428 Favoritos: 0
Ver los usuarios que votaron...
10 Comentarios New girl temporada 3 capitulo 18 a 23 audio latino
muchas gracias por los capitulos  
GENIAL COMPA, COMO SIEMPRE. UNA PREGUNTA, TIENE SOLO 23 CAP LA TEMPORADA 3?
SALUDOS, +10
Muchsisisisismas gracias! :3
@juanw200 gracias amigo realmente mil gracias gracias a ti e disfrutado de primera y segunda temporada y ahora de esta nueva de verdad te lo agradezco saludos y buen dia
+25

juanw200 jajajajajaja de lujo    te pongo mis 25 puntos por d?
Gracias, DE LO MEJOR!

Salu2!

+10
@JAFC1902 @Chikenpop @SPLICING @drako_jep @MoskaRulo @gatochalado gracias por pasar, pense que nunca terminaria con la temporada pero al final si se pudo, si los puntos si aparecen en mi post
amigo perdona no la tienes en sub
COMPA TENGO UNA PREGUNTA, ES QUE RECIENTEMENTE ME DESCARGE LOS WEB.DL DE LA TEMPORADA 1, SIGO BAJANDO LA T2 Y SEGUIRE CON LA 3 Y 4, E SINCRINIZADO AUDIOS A VARIOS CAP, PERO CUANDO EL TORRENTE DE AUDIO ES MUY GRANDE Y HAY QUE HACER UN CAMBIO DE UN AUDIO A OTRO (UN CORTE), SE OLLE LUEGO AL REPRODUCIR EL PEQUE?
@Chikenpop con Sound Forge Audio Studio, pero te cuento que es complicado necesitas buscar algun tutorial, yo batalle mucho pero despues de varios capitulos se hace mas facil, en algunos capitulos ay que meter partes en ingles, no te entiendo con lo del audio grande, quieres decir que el ingles se oye muy alto y el latino muy bajo
Para dejar un comentario Registrate! o.. eres ya usuario? Accede!