The Middle Una Familia Modelo TvriplatinoT1 24/d24

The Middle Una Familia Modelo Tvrip latino temporada 1 completa




Saludos aqui les dejo la primera temporada completa de esta serie, en total son 24 capitulos subidos a mega totalmente en latino, peso de cada capitulo 180MB, solo el primero capitulo pesa 215MB
Fue estrenada en Estados Unidos el 30 de septiembre de 2009; en México en Septiembre del 2010 tramitida por Warner Channel y el canal 5 de Televisa.2 En Latinoamerica se estrenó el 13 de julio de 2010, emitida por Warner Channel.3

La serie trata de la vida de Frankie Heck (Patricia Heaton), una mujer de mediana edad, que está casada con Mike Heck (Neil Flynn); quienes residen en el pequeño pueblo de Orson, en Indiana. Frankie y Mike son padres de tres hijos: Axl (Charlie McDermott), Sue (Eden Sher) y Brick (Atticus Shaffer). Chris Kattan hace el papel de Bob, un excéntrico amigo de Frankie, que trabaja en la misma automotora que ella.

A la fecha, la serie cuenta con 5 temporadas y 105 episodios.
La trama de la serie sitúa a los Heck, una familia de clase media, que reside en los suburbios de Orson, un pueblo ficticio del estado de Indiana, justo en el medio de Estados Unidos (de ahí el nombre de la serie).

Frankie es una mujer de mediana edad que intenta criar y sacar adelante a su familia lidiando con los problemas del día a día, con un gran sentido del humor. Debe ocuparse de las tareas del hogar, atendiendo los problemas de su neurótica hija adolescente Sue; reclamando desesperadamente la atención y el amor de su hijo, el atleta y popular Axel; y resolviendo las excentricidades de su hijo menor Brick que pasa todo el día leyendo libros (o cualquier otra cosa que contenga letras), y que además tiene serios problemas de distracción. Su mano derecha para realizar las tareas es su esposo, Mike, empleado en una cantera, que se caracteriza por ser anticuado y gran fanático de los deportes.

A su vez, Frankie debe lidiar con su empleo que detesta en Ehler Motors, una automotora de autos usados, donde también trabaja su compañero Bob, un extraño y solitario personaje, que ve en la familia Heck el modelo de familia perfecta que él nunca llegó a formar
Capturas 



Format                                   : AVI
Format/Info                              : Audio Video Interleave
File size                                : 204 MiB
Duration                                 : 23mn 7s
Overall bit rate                         : 1 235 Kbps
Writing application                      : VirtualDubMod 1.5.10.3 | www.virtualdub-fr.org || (build 2550/release)
Writing library                          : VirtualDubMod build 2550/release

Video
ID                                       : 0
Format                                   : MPEG-4 Visual
Format profile                           : Advanced [email protected]
Format settings, BVOP                    : 1
Format settings, QPel                    : No
Format settings, GMC                     : No warppoints
Format settings, Matrix                  : Custom
Codec ID                                 : XVID
Codec ID/Hint                            : XviD
Duration                                 : 23mn 7s
Bit rate                                 : 1 095 Kbps
Width                                    : 688 pixels
Height                                   : 400 pixels
Display aspect ratio                     : 1.720
Frame rate                               : 29.970 fps
Color space                              : YUV
Chroma subsampling                       : 4:2:0
Bit depth                                : 8 bits
Scan type                                : Progressive
Compression mode                         : Lossy
Bits/(Pixel*Frame)                       : 0.133
Stream size                              : 181 MiB (89%)
Writing library                          : XviD 1.2.1 (UTC 2008-12-04)

Audio
ID                                       : 1
Format                                   : MPEG Audio
Format version                           : Version 1
Format profile                           : Layer 3
Mode                                     : Joint stereo
Mode extension                           : MS Stereo
Codec ID                                 : 55
Codec ID/Hint                            : MP3
Duration                                 : 23mn 6s
Bit rate mode                            : Constant
Bit rate                                 : 128 Kbps
Channel(s)                               : 2 channels
Sampling rate                            : 48.0 KHz
Compression mode                         : Lossy
Delay relative to video                  : 4ms
Stream size                              : 21.2 MiB (10%)
Alignment                                : Split accross interleaves
Interleave, duration                     : 33 ms (1.00 video frame)
Interleave, preload duration             : 500 ms
Writing library       -




The Middle Una Familia Modelo TvriplatinoT1 24/d24
115 Puntos Score: 9.6/10
Visitas: 1972 Favoritos: 7
Ver los usuarios que votaron...
21 Comentarios The Middle Una Familia Modelo TvriplatinoT1 24/d24
que bonita esta la nueva caja de identi

esta serie me recuerda a la de Malcom ....
gracias por la serie  
buena serie muy entretenida, gracias  
muchas gracias por compartirla espero tambien puedas conseguirte la 4 temporada eres muy amable
Siempre la quise ver, sabes cu?
gracias, subiras las demas temporadas?
@mupaxx @donjuan219 @FabianMP no se cuantas temporadas sean, aqui en mexico van en la 2 y no se si seguiran con las demas, habra que esperar unos meses a ver que pasa
da error el archivo 4 del 5to capitulo amigo. Por lo demas muchisimas gracias genial aporte!
Muchas Gracias + 10
Descargado Completo y sin fallas Lo recomiendo Gracias
En el canal 5 desde ayer comenzaron a estrenar cap?
@WWMMELLZ ya los estoy grabando espero poder completar los capitulos, si tu tv graba en usb  puedes ver el formato en que los graba en tu pc
Gracias mi amigo voy a descargarme toda la serie, estuvo mal que la haya comparado con malcolm  porque esta serie es genial a su estilo  
Tus aportes son geniales gracias.
altamente recomendada esta serie, gracias por compartir amigo   buena vibra y pura vida  
grande  muy bueno  gracias gracias,  por fin voy a ver la primera  y a sue
Para dejar un comentario Registrate! o.. eres ya usuario? Accede!