New girl temporada 3 capitulo 12 y 13 audio latino

La serie comienza con Jessica «Jess» Day (interpretada por Zooey Deschanel), una mujer peculiar y alegre de casi treinta años que da clases en una escuela primaria local de Los Ángeles. Jess comienza a buscar un nuevo lugar para vivir después de descubrir que su novio la engaña. Al ver un anuncio de un nuevo compañero de cuarto en Craigslist, se muda con tres jóvenes: Nick, Schmidt y Coach. Muy poco después de su traslado, Coach se va, y es sustituido por Winston, otro joven que había vivido en el apartamento con Nick y Schmidt.




General
Complete name                            : I:NEW GIRL 3X13 LATINO.avi
Format                                   : AVI
Format/Info                              : Audio Video Interleave
File size                                : 180 MiB
Duration                                 : 21mn 34s
Overall bit rate                         : 1 169 Kbps
Movie name                               : NEW GIRL 3X13 LATINO
Director                                 : JUANW200
Genre                                    : COMEDIA
Writing application                      : VirtualDubMod 1.5.10.3 | www.virtualdub-fr.org || (build 2550/release)
Original source form/Name                : NEW GIRL TEMPORADA 3
Copyright                                : JUANW200
Comment                                  : http://www.identi.li/index.php?action=profile;user=juanw200  I D E N T I 

Video
ID                                       : 0
Format                                   : MPEG-4 Visual
Format profile                           : Advanced [email protected]
Format settings, BVOP                    : 1
Format settings, QPel                    : No
Format settings, GMC                     : No warppoints
Format settings, Matrix                  : Custom
Codec ID                                 : XVID
Codec ID/Hint                            : XviD
Duration                                 : 21mn 34s
Bit rate                                 : 1 032 Kbps
Width                                    : 720 pixels
Height                                   : 416 pixels
Display aspect ratio                     : 1.731
Frame rate                               : 23.976 fps
Color space                              : YUV
Chroma subsampling                       : 4:2:0
Bit depth                                : 8 bits
Scan type                                : Progressive
Compression mode                         : Lossy
Bits/(Pixel*Frame)                       : 0.144
Stream size                              : 159 MiB (88%)
Writing library                          : XviD 1.2.1 (UTC 2008-12-04)

Audio
ID                                       : 1
Format                                   : MPEG Audio
Format version                           : Version 1
Format profile                           : Layer 3
Mode                                     : Joint stereo
Mode extension                           : MS Stereo
Codec ID                                 : 55
Codec ID/Hint                            : MP3
Duration                                 : 21mn 34s
Bit rate mode                            : Constant
Bit rate                                 : 128 Kbps
Channel(s)                               : 2 channels
Sampling rate                            : 44.1 KHz
Compression mode                         : Lossy
Stream size                              : 19.7 MiB (11%)
Alignment                                : Split accross interleaves
Interleave, duration                     : 42 ms (1.00 video frame)
Interleave, preload duration             : 500 ms
Writing library                          : LAME3.99r
Encoding settings                        : -m j -V 4 -q 0 -lowpass 17 -b 128
Language                                 : ESPAÑOL LATINO



New girl temporada 3 capitulo 12 y 13 audio latino
50 Puntos Score: 10/10
Visitas: 1085 Favoritos: 4
Ver los usuarios que votaron...
4 Comentarios New girl temporada 3 capitulo 12 y 13 audio latino
gracias por los capitulos  
gracias por los nuevos mil gracias y se valora tu esfuerzo saludos
+10
@juanw200 Gracias mi buen, ya est?
Gracias master +10
Para dejar un comentario Registrate! o.. eres ya usuario? Accede!