New girl temporada 3 capitulo 10 y 11 audio latino


Aqui les dejo los capitulos 10 y 11, este fin de semana me pongo a sincronizar los capitulos que faltan, espero disculpen que me estoy tardando pero se me hace muy complicado hacer la sincronia,ay veces que tardo hasta 2 horas o mas por cada capitulo.estaba pensando subir los demas capitulos asi directos como se graban del canal 7, pero mejor esperare este fin de semana y are un esfuerzo en sincronizar los que faltan
La serie comienza con Jessica «Jess» Day (interpretada por Zooey Deschanel), una mujer peculiar y alegre de casi treinta años que da clases en una escuela primaria local de Los Ángeles. Jess comienza a buscar un nuevo lugar para vivir después de descubrir que su novio la engaña. Al ver un anuncio de un nuevo compañero de cuarto en Craigslist, se muda con tres jóvenes: Nick, Schmidt y Coach. Muy poco después de su traslado, Coach se va, y es sustituido por Winston, otro joven que había vivido en el apartamento con Nick y Schmidt.
Capturas 








General
Complete name                            : I:
ewgirlNEW GIRL 3X10 LATINO.avi
Format                                   : AVI
Format/Info                              : Audio Video Interleave
File size                                : 180 MiB
Duration                                 : 21mn 35s
Overall bit rate                         : 1 168 Kbps
Movie name                               : NEW GIRL 3X10 LATINO
Director                                 : JUANW200
Genre                                    : COMEDIA
Writing application                      : VirtualDubMod 1.5.10.3 | www.virtualdub-fr.org || (build 2550/release)
Original source form/Name                : NEW GIRL TEMPORADA 3 
Copyright                                : JUANW200
Comment                                  : http://www.identi.li/index.php?action=profile;user=juanw200 / I / D / E / N / T / I

Video
ID                                       : 0
Format                                   : MPEG-4 Visual
Format profile                           : Advanced [email protected]
Format settings, BVOP                    : 1
Format settings, QPel                    : No
Format settings, GMC                     : No warppoints
Format settings, Matrix                  : Custom
Codec ID                                 : XVID
Codec ID/Hint                            : XviD
Duration                                 : 21mn 35s
Bit rate                                 : 1 031 Kbps
Width                                    : 720 pixels
Height                                   : 416 pixels
Display aspect ratio                     : 1.731
Frame rate                               : 23.976 fps
Color space                              : YUV
Chroma subsampling                       : 4:2:0
Bit depth                                : 8 bits
Scan type                                : Progressive
Compression mode                         : Lossy
Bits/(Pixel*Frame)                       : 0.144
Stream size                              : 159 MiB (88%)
Writing library                          : XviD 1.2.1 (UTC 2008-12-04)

Audio
ID                                       : 1
Format                                   : MPEG Audio
Format version                           : Version 1
Format profile                           : Layer 3
Mode                                     : Joint stereo
Mode extension                           : MS Stereo
Codec ID                                 : 55
Codec ID/Hint                            : MP3
Duration                                 : 21mn 35s
Bit rate mode                            : Constant
Bit rate                                 : 128 Kbps
Channel(s)                               : 2 channels
Sampling rate                            : 44.1 KHz
Compression mode                         : Lossy
Stream size                              : 19.8 MiB (11%)
Alignment                                : Split accross interleaves
Interleave, duration                     : 42 ms (1.00 video frame)
Interleave, preload duration             : 500 ms
Writing library                          : LAME3.99r
Encoding settings                        : -m j -V 4 -q 0 -lowpass 17 -b 128
Language                                 : ESPAÑOL LATINO


Resubido a mega 
New girl temporada 3 capitulo 10 y 11 audio latino
60 Puntos Score: 10/10
Visitas: 1617 Favoritos: 2
Ver los usuarios que votaron...
19 Comentarios New girl temporada 3 capitulo 10 y 11 audio latino
muchas gracias por los cap +10  
no puedo descargarlo  
Muchas gracias, esperemos puedas completarla, seria maravilloso, se agaradece gran aporte.
+10

Se agradece el esfuerzo mi amigo, esperamos, cuando los tengas, gracias por compartir la serie, un saludo desde Guadalajara y sigue as?
@juanw200 es cierto amigo, no se pueden descargar, podr?
asi es amigo no se pueden descargar ojala lo puedas revisar sigo al pendiente saludos y gracias por continuar @juanw200
@drako_jep @MoskaRulo @johans2400 AMIGOS LE VENGO A AVISAR QUE NO ES PROBLEMA DE LOS ENLACES, NI TAMPOCO SUYO, EL SERVIDOR FIREDRIVE ESTA TENIENDO PROBLEMAS CON LOS GESTORES, YO TENGO VARIOS ENLACES QUE NO DESCARGAN TANTO EN FIREDRIVE COMO EN JDOWNLOADER.

Y EN CUANTO A LOS CAPITULOS, ME DIRIJO AL DUE?
@JAFC1902 @johans2400 @MoskaRulo @drako_jep @Chikenpop amigos creo que firedrive esta en mantenimiento eso dice en su facebook, voy a esperar unos dias si no se arregla resubire otra vez los capitulos, no puedo ni loguearme asi paso la otra vez pero despues de unos dias se actualizo
esperare a que funcione firedrive aun asi los 10 son yullos por el esfuerzo de grabarlos y de sincronizarlos yo se que es pesado he estado sincronizando la teoria del big bang y si es un tanto trabajoso
@juanw200 gracias amigo por avisar y no te preocupes no hay problema estaremos esperando a que se solucione bastante haces con capturarla saludos buen dia
@juanw200 Descuida broo, estaremos al pendiente, se valora tu esfuerzo, el servidor SHARE, se me hace muy bueno, solo lo digo por si haces alguna cuenta, cargas y descargas a buena velocidad y los archivos se mantienen en linea...
@juanw200 gracias ahora mismo los bajo esperando los demas saludos
muchas gracias! +10
AMIGO TENGO PROBLEMAS PARA DESCARGAR LA PARTE 2 DEL CAPITULO 11, CHEKALA PORFAVOR, ALOMEJOR ES UNO DE ESOS PROBLEMAS TEMPORALES.
SALUDOS.
@juanw200 Gracias mi amigo, en descarga, te dejo mis puntos del d?
@juanw200 COMPA NO DESCARGABA, PERO YA LO DESCARGE, CREO QUE FUE UNO DE ESOS ERRORES TEMPORALES DE MEGA, ARCHIVO TEMPORALMENTE NO DISPONIBLE, EN MANTENCION O ALGO ASI, PERO YA ESTA. GRACIAS POR RESPONDER, SALUDOS.
Para dejar un comentario Registrate! o.. eres ya usuario? Accede!