Tiesto ft. DBX - Light Years Away (2014.EDM)




TIËSTO ft. DBX - LIGHT YEARS AWAY








General: Mp3




Format                                   : MPEG Audio
File size                                : 7.21 MiB
Duration                                 : 3mn 56s
Overall bit rate mode                    : Constant
Overall bit rate                         : 256 Kbps
Album                                    : A Town Called Paradise
Track name                               : Light Years Away
Performer                                : Tiësto ft. DBX
Genre                                    : EDM
Recorded date                            : 2014
Writing library                          : LAME3.97
Copyright                                : Tiësto
Cover                                    : Yes
Cover type                               : Cover (front)
Cover MIME                               : image/jpeg
Comment                                  : Tiësto & DBX
COMM                                     : Tiësto & DBX
author                                   : Tiësto ft. DBX

Audio
Format                                   : MPEG Audio
Format version                           : Version 1
Format profile                           : Layer 3
Mode                                     : Joint stereo
Duration                                 : 3mn 56s
Bit rate mode                            : Constant
Bit rate                                 : 256 Kbps
Channel(s)                               : 2 channels
Sampling rate                            : 44.1 KHz
Compression mode                         : Lossy
Stream size                              : 7.20 MiB (100%)
Writing library                          : LAME3.97


MPEG4 PROMO MUSIC VID

General
Format : MPEG-4
Format profile : Base Media
Codec ID : isom
File size : 87.9 MiB
Duration : 3mn 55s
Overall bit rate : 3 124 Kbps
Movie name : Light Years Away
Movie name/More : Tiësto & DBX
Album : A Town Called Paradise
Performer : Tiësto ft. DBX
Genre : EDM
ContentType : Music Video
Recorded date : 2014
Copyright : Tiësto
Cover : Yes
Make : MeRaDil
oday : 18-09-2014 The Netherlands
labl : Musical Freedom - PM:AM - Universal
Part_ID : Light Years Away

Video
ID : 1
Format : AVC
Format/Info : Advanced Video Codec
Format profile : [email protected]
Format settings, CABAC : Yes
Format settings, ReFrames : 2 frames
Codec ID : avc1
Codec ID/Info : Advanced Video Coding
Duration : 3mn 55s
Bit rate : 2 862 Kbps
Width : 1 920 pixels
Height : 1 080 pixels
Display aspect ratio : 16:9
Frame rate mode : Variable
Frame rate : 23.976 fps
Minimum frame rate : 23.974 fps
Maximum frame rate : 23.981 fps
Color space : YUV
Chroma subsampling : 4:2:0
Bit depth : 8 bits
Scan type : Progressive
Bits/(Pixel*Frame) : 0.058
Stream size : 80.5 MiB (92%)

Audio
ID : 2
Format : AAC
Format/Info : Advanced Audio Codec
Format profile : LC
Codec ID : 40
Duration : 3mn 55s
Bit rate mode : Constant
Bit rate : 256 Kbps
Channel(s) : 2 channels
Channel positions : Front: L R
Sampling rate : 44.1 KHz
Compression mode : Lossy
Stream size : 7.20 MiB (8%)






[/color]



[/size][/color][/b]
Tiesto ft. DBX - Light Years Away (2014.EDM)
5 Puntos Score: 5/10
Visitas: 1058 Favoritos: 0
Ver los usuarios que votaron...
2 Comentarios Tiesto ft. DBX - Light Years Away (2014.EDM)
@kaleidos gracias por pasar  
Para dejar un comentario Registrate! o.. eres ya usuario? Accede!