Oops.. Este post tiene los enlaces eliminados!

Identi revisa las denuncias de los usuarios en busca de enlaces eliminados que no dejan descargar los archivos, este mensaje te informa que este post que estas viendo tiene los enlaces eliminados.

Usa el Buscador

Por favor, te recomendamos que uses el buscador para encontrar más alternativas.

Sin City [BRrip][Latino][2005]

  • Categoría: Reciclaje
  • Publicado hace más de 5 años


Sin City [Latino][2005]

















Bienvenidos a Sin City, ciudad de policías corruptos, atractivas damas y vigilantes desesperados. Algunos están buscando venganza, algunos redención, y otros, ambas cosas. Un universo de héroes inverosímiles que intentan hacer lo correcto. Sin City es una ciudad que vive entre la luz y la oscuridad, llena de personajes singulares. Está por ejemplo Marv (Mickey Rourke), un superviviente que busca vengar la muerte de su único amor. También está Dwight (Clive Owen), un investigador privado que intenta dejar sus problemas atrás. Después de que un policía sea asesinado, Dwight no parará ante nada para proteger a sus amigos. Finalmente, está la historia de Hartigan (Bruce Willis), el último policía honesto de Sin City, que va tras la pista de una joven en manos del sádico hijo de un senador... con resultados inesperados...





Película
Título original: Sin City
Dirección: Robert Rodriguez & Frank Miller, con la colaboración especial de Quentin Tarantino
Pais: USA
Año: 2005
Genero: Acción | Crimen | Thriller
Interpretacion: Jessica Alba (Nancy), Benicio Del Toro (Jackie Boy), Brittany Murphy (Shellie), Clive Owen (Dwight), Mickey Rourke (Marv), Bruce Willis (Hartigan), Elijah Wood (Kevin), Rosario Dawson (Gail), Michael Clarke Duncan (Manute), Michael Madsen (Bob), Josh Hartnett (El Hombre), Carla Gugino (Lucille), Jaime King (Goldie), Nick Stahl (Roarke Jr/Bastardo amarillo), Devon Aoki (Miho), Alexis Bledel (Becky), Rutger Hauer (Cardenal Roark)
Guion: Frank Miller
Produccion: Elizabeth Avellán, Frank Miller y Robert Rodriguez
Musica: Robert Rodriguez, John Debney y Graeme Revell
Fotografia: Robert Rodriguez
Estreno en USA: 1 Abril 2005

General
Formato/Info: AVI - Audio Video Interleave
Tamaño del archivo: 2,259 MB
Duración: 2:04:03
Tasa de bits total: 2 547 Kbps
Idioma: Español Latino
Subtítulos forzados: Pegados al video

Video
Format: MPEG-4 Visual
Format profile: Advanced [email protected]
Format settings, BVOP: Yes
Format settings, QPel: No
Format settings, GMC: No warppoints
Format settings, Matrix: Default (H.263)
Muxing mode: Packed bitstream
Codec ID: XVID
Codec ID/Hint: XviD
Duration: 2h 4mn
Bit rate: 2 153 Kbps
Width: 720 pixels
Height: 400 pixels
Display aspect ratio: 16:9
Frame rate: 23.976 fps
Color space: YUV
Chroma subsampling: 4:2:0
Bit depth: 8 bits
Scan type: Progressive
Bits/(Pixel*Frame): 0.312
Stream size: 1.87 GiB (85%)
Writing library: XviD 1.2.1 (UTC 2008-12-04)

Audio
Format/Info: AC3 - Audio Coding 3
Mode extension: CM (complete main)
Codec ID: 2000
Duration: 2h 4mn
Bit rate mode: Constant
Bit rate: 384 Kbps
Channel(s): 6 channels
Channel positions: Front: L C R, Side: L R, LFE
Sampling rate: 48.0 KHz
Bit depth: 16 bits
Video delay: 12ms
Stream size: 341 MiB (15%)
Alignment: Split accross interleaves
Interleave, duration: 64 ms (1.53 video frames)
Interleave, preload duration: 500 ms





















www.identi.es


Unir las partes con Hj-split
Uploader: renxo





Sin City [BRrip][Latino][2005]
30 Puntos Score: 7.5/10
Visitas: 3175 Favoritos: 6
Ver los usuarios que votaron...
Más del Autor...
No se encontraron más posts
6 Comentarios Sin City [BRrip][Latino][2005]
gracias por la pelicula renxo.                  
Muy buena peli, un ripeo raro xq se ve de puta madre parece un 720p pero es 720x400 una resolucion que normalmente en mi monitor se veria horrible pero sin envargo se ve genial !   +10  
Muy buen aporte, muchas gracias por compartirlo. Salu2    
Muchas gracias muy buena pelicula
Para dejar un comentario Registrate! o.. eres ya usuario? Accede!