New girl temporada 3 capitulos 8 y 9 audio latino


Aqui les dejo los  capitulos 8 y 9, la calidad de los capitulos es buena a comparacion si los subiera directos grabados de la tv con antena de conejo ustedes saben como es,asi se ven los capitulos es el 10 que todavia no sincronizo, Es lo maximo que puedo hacer , como lo dije en el otro post tengo los audios completos con todo y comerciales si alguien se anima a sincronizarlos con alguna version de mas calidad subo solo los audios es complicado pero se que hay expertos que lo pueden hacer, los capitulos estan en transmision de lunes a jueves al las 12.25 am hora de mexico hoy se da el capitulo 11, Espero completar la temporada


La serie comienza con Jessica «Jess» Day (interpretada por Zooey Deschanel), una mujer peculiar y alegre de casi treinta años que da clases en una escuela primaria local de Los Ángeles. Jess comienza a buscar un nuevo lugar para vivir después de descubrir que su novio la engaña. Al ver un anuncio de un nuevo compañero de cuarto en Craigslist, se muda con tres jóvenes: Nick, Schmidt y Coach. Muy poco después de su traslado, Coach se va, y es sustituido por Winston, otro joven que había vivido en el apartamento con Nick y Schmidt.

Capturas 







General
Complete name                            : C:Documents and SettingsJUANConfiguración localTempRar$DRa0.720NEW GIRL 3X08 LATINO.avi
Format                                   : AVI
Format/Info                              : Audio Video Interleave
File size                                : 180 MiB
Duration                                 : 21mn 34s
Overall bit rate                         : 1 169 Kbps
Movie name                               : NEW GIRL 3X08 LATINO
Director                                 : JUANW200
Genre                                    : COMEDIA
Recorded date                            :  3 DE SEPTIEMBRE 2014
Writing application                      : VirtualDubMod 1.5.10.3 | www.virtualdub-fr.org || (build 2550/release)
Original source form/Name                : NEW GIRL TEMPORADA 3
Copyright                                : JUANW200
Comment                                  : http://www.identi.li/index.php?action=profile;user=juanw200

Video
ID                                       : 0
Format                                   : MPEG-4 Visual
Format profile                           : Advanced [email protected]
Format settings, BVOP                    : 1
Format settings, QPel                    : No
Format settings, GMC                     : No warppoints
Format settings, Matrix                  : Custom
Codec ID                                 : XVID
Codec ID/Hint                            : XviD
Duration                                 : 21mn 34s
Bit rate                                 : 1 032 Kbps
Width                                    : 720 pixels
Height                                   : 416 pixels
Display aspect ratio                     : 1.731
Frame rate                               : 23.976 fps
Color space                              : YUV
Chroma subsampling                       : 4:2:0
Bit depth                                : 8 bits
Scan type                                : Progressive
Compression mode                         : Lossy
Bits/(Pixel*Frame)                       : 0.144
Stream size                              : 159 MiB (88%)
Writing library                          : XviD 1.2.1 (UTC 2008-12-04)

Audio
ID                                       : 1
Format                                   : MPEG Audio
Format version                           : Version 1
Format profile                           : Layer 3
Mode                                     : Joint stereo
Mode extension                           : MS Stereo
Codec ID                                 : 55
Codec ID/Hint                            : MP3
Duration                                 : 21mn 34s
Bit rate mode                            : Constant
Bit rate                                 : 128 Kbps
Channel(s)                               : 2 channels
Sampling rate                            : 48.0 KHz
Compression mode                         : Lossy
Delay relative to video                  : 245ms
Stream size                              : 19.8 MiB (11%)
Alignment                                : Split accross interleaves
Interleave, duration                     : 42 ms (1.00 video frame)
Interleave, preload duration             : 500 ms
Writing library                          : LAME3.99r
Encoding settings                        : -m j -V 4 -q 0 -lowpass 17 -b 128
Language                                 : ESPAÑOL LATINO



General
Complete name                            : C:Documents and SettingsJUANConfiguración localTempRar$DRa0.978NEW GIRL 3X09 LATINO.avi
Format                                   : AVI
Format/Info                              : Audio Video Interleave
File size                                : 180 MiB
Duration                                 : 21mn 35s
Overall bit rate                         : 1 168 Kbps
Movie name                               : NEW GIRL 3X09 LATINO
Director                                 : JUANW200
Genre                                    : COMEDIA
Recorded date                            : 4 DE SEPTIEMBRE 2014
Writing application                      : VirtualDubMod 1.5.10.3 | www.virtualdub-fr.org || (build 2550/release)
Original source form/Name                : NEW GIRL TEMPORADA 3
Copyright                                : JUANW200
Comment                                  : http://www.identi.li/index.php?action=profile;user=juanw200

Video
ID                                       : 0
Format                                   : MPEG-4 Visual
Format profile                           : Advanced [email protected]
Format settings, BVOP                    : 1
Format settings, QPel                    : No
Format settings, GMC                     : No warppoints
Format settings, Matrix                  : Custom
Codec ID                                 : XVID
Codec ID/Hint                            : XviD
Duration                                 : 21mn 35s
Bit rate                                 : 1 031 Kbps
Width                                    : 720 pixels
Height                                   : 416 pixels
Display aspect ratio                     : 1.731
Frame rate                               : 23.976 fps
Color space                              : YUV
Chroma subsampling                       : 4:2:0
Bit depth                                : 8 bits
Scan type                                : Progressive
Compression mode                         : Lossy
Bits/(Pixel*Frame)                       : 0.144
Stream size                              : 159 MiB (88%)
Writing library                          : XviD 1.2.1 (UTC 2008-12-04)

Audio
ID                                       : 1
Format                                   : MPEG Audio
Format version                           : Version 1
Format profile                           : Layer 3
Mode                                     : Joint stereo
Mode extension                           : MS Stereo
Codec ID                                 : 55
Codec ID/Hint                            : MP3
Duration                                 : 21mn 35s
Bit rate mode                            : Constant
Bit rate                                 : 128 Kbps
Channel(s)                               : 2 channels
Sampling rate                            : 44.1 KHz
Compression mode                         : Lossy
Stream size                              : 19.8 MiB (11%)
Alignment                                : Split accross interleaves
Interleave, duration                     : 42 ms (1.00 video frame)
Interleave, preload duration             : 500 ms
Writing library                          : LAME3.99r
Encoding settings                        : -m j -V 4 -q 0 -lowpass 17 -b 128
Language                                 : ESPAÑOL LATINO



New girl temporada 3 capitulos 8 y 9 audio latino
60 Puntos Score: 10/10
Visitas: 1239 Favoritos: 1
Ver los usuarios que votaron...
8 Comentarios New girl temporada 3 capitulos 8 y 9 audio latino
gracias por tus aportes +10  
Gracias sigue subiendo! porfavor.
@juanw200 gracias por los nuevos amigo de verdad se te agradece mucho espero continues ya que es muy buena serie saludos y buen dia
Brother mil gracias...
Para dejar un comentario Registrate! o.. eres ya usuario? Accede!