Transmorphers [DVDRip] [Subtitulada Esp.] [2007]

Transmorphers [DVDRip] [Subtitulada Esp.] [2007]



TITULO ORIGINAL: Robot Wars
GENERO: Ciencia Ficción
PAIS: Estados Unidos
AÑO: 2007
DIRECTOR: Leigh Scott
GUION: Leigh Scott
INTERPRETES: Amy Weber, Eliza Swenson y Matthew Wolf
PRODUCTOR:   David Michael Latt
MUSICA: Victoria Mazze y Chris Ridenhour
FOTOGRAFÍA: Steven Parker

Info.video
]Video
ID :   0
Format :   MPEG-4 Visual
Format settings, BVOP :   No
Format settings, QPel :   No
Format settings, GMC :   No warppoints
Format settings, Matrix :   Default (H.263)
Codec ID :   DX50
Codec ID/Hint :   DivX 5
Duration :   1h 25mn
Bit rate :   1 005 Kbps
Width :   640 pixels
Height :   352 pixels
Display aspect ratio :   16:9
Frame rate :   23.976 fps
Color space :   YUV
Chroma subsampling :   4:2:0
Bit depth :   8 bits
Scan type :   Progressive
Bits/(Pixel*Frame) :   0.186
Stream size :   614 MiB (88%)
Writing library :   DivX 6.8.5 (UTC 2009-08-20)

Audio
ID :   1
Format :   MPEG Audio
Format version :   Version 1
Format profile :   Layer 3
Mode :   Joint stereo
Codec ID :   55
Codec ID/Hint :   MP3
Duration :   1h 25mn
Bit rate mode :   Variable
Bit rate :   128 Kbps
Channel(s) :   2 channels
Sampling rate :   48.0 KHz
Stream size :   77.6 MiB (11%)
Alignment :   Aligned on interleaves
Interleave, duration :   24 ms (0.58 video frame)
Interleave, preload duration :   145 ms
Writing library :   LAME3.90.
Encoding settings :   -m j -V 4 -q 2 -lowpass 17.6 ?abr 128

SINOPSIS
En Transmorphers, unos robots alienígenas llegan a la Tierra y someten a toda la humanidad. 300 años después, un grupo de humanos rebeldes lanza una ofensiva para liberarnos de las malvadas máquinas. Poco que ver en realidad con la película de Michael Bay, en principio.
   



identi.es/darkangelgirl
Transmorphers [DVDRip] [Subtitulada Esp.] [2007]
15 Puntos Score: 7.5/10
Visitas: 2156 Favoritos: 1
Ver los usuarios que votaron...
2 Comentarios Transmorphers [DVDRip] [Subtitulada Esp.] [2007]
LINK CAIDOS SHIT!!
La resubis por favor?
Para dejar un comentario Registrate! o.. eres ya usuario? Accede!