New girl temporada 3 capitulo 6 y 7 audio latino


La serie comienza con Jessica «Jess» Day (interpretada por Zooey Deschanel), una mujer peculiar y alegre de casi treinta años que da clases en una escuela primaria local de Los Ángeles. Jess comienza a buscar un nuevo lugar para vivir después de descubrir que su novio la engaña. Al ver un anuncio de un nuevo compañero de cuarto en Craigslist, se muda con tres jóvenes: Nick, Schmidt y Coach. Muy poco después de su traslado, Coach se va, y es sustituido por Winston, otro joven que había vivido en el apartamento con Nick y Schmidt.
Capturas





General
Complete name                            : H:otrosNEW GIRL 3X06 LATINO.avi
Format                                   : AVI
Format/Info                              : Audio Video Interleave
File size                                : 179 MiB
Duration                                 : 21mn 30s
Overall bit rate                         : 1 165 Kbps
Movie name                               : NEW GIRL 3X06 LATINO
Director                                 : JUANW200
Genre                                    : COMEDIA
Recorded date                            : 1 DE SEPTIEMBRE 2014
Writing application                      : VirtualDubMod 1.5.10.3 | www.virtualdub-fr.org || (build 2550/release)
Original source form/Name                : NEW GIRL TEMPORADA 3
Copyright                                : JUANW200
Comment                                  : http://www.identi.li/index.php?action=profile;user=juanw200

Video
ID                                       : 0
Format                                   : MPEG-4 Visual
Format profile                           : Advanced [email protected]
Format settings, BVOP                    : 1
Format settings, QPel                    : No
Format settings, GMC                     : No warppoints
Format settings, Matrix                  : Custom
Codec ID                                 : XVID
Codec ID/Hint                            : XviD
Duration                                 : 21mn 30s
Bit rate                                 : 1 027 Kbps
Width                                    : 720 pixels
Height                                   : 416 pixels
Display aspect ratio                     : 1.731
Frame rate                               : 23.976 fps
Color space                              : YUV
Chroma subsampling                       : 4:2:0
Bit depth                                : 8 bits
Scan type                                : Progressive
Compression mode                         : Lossy
Bits/(Pixel*Frame)                       : 0.143
Stream size                              : 158 MiB (88%)
Writing library                          : XviD 1.2.1 (UTC 2008-12-04)

Audio
ID                                       : 1
Format                                   : MPEG Audio
Format version                           : Version 1
Format profile                           : Layer 3
Mode                                     : Joint stereo
Mode extension                           : MS Stereo
Codec ID                                 : 55
Codec ID/Hint                            : MP3
Duration                                 : 21mn 30s
Bit rate mode                            : Constant
Bit rate                                 : 128 Kbps
Channel(s)                               : 2 channels
Sampling rate                            : 44.1 KHz
Compression mode                         : Lossy
Stream size                              : 19.7 MiB (11%)
Alignment                                : Split accross interleaves
Interleave, duration                     : 42 ms (1.00 video frame)
Interleave, preload duration             : 500 ms
Writing library                          : LAME3.99r
Encoding settings                        : -m j -V 4 -q 0 -lowpass 17 -b 128
Language                                 : ESPAÑOL LATINO
New girl temporada 3 capitulo 6 y 7 audio latino
45 Puntos Score: 9/10
Visitas: 997 Favoritos: 2
Ver los usuarios que votaron...
7 Comentarios New girl temporada 3 capitulo 6 y 7 audio latino
hola buen post pero mejor estaria si haces un solopost donde pongas una temporada completa y con mejor resolucion aunq pese mas , gracias saludos
Genieal, excelente post! sigue subiendo. 10+  
Cita ticherki: Mostrar
juanw200 esta grabando los audio y despu?
gracias por los nuevos capis amigo se te agradece bajando y esperando los demas saludos
@SPLICING @gatochalado @croneo10 @drako_jep  de nada ahorita posteo los capitulos 8 y 9  
Para dejar un comentario Registrate! o.. eres ya usuario? Accede!