New girl temporada 3 capitulo 2 y 3 audio latino




Saludo amigos de identi aqui les dejo los capitulos 2 y 3 de la temporada 3 de new gir en latino,Esta vez decidi buscar un video de mas calidad y añadir el audio, lamentablemente yo lo que hago es ajustar el video al audio y no el audio al video por lo que este audio no les servira si lo quieren usar para alguna version 720p,Pero no todo esta perdido ya que cuento con el audio completo de la tv con comerciales y todo, si algun experto lo quiere para sincronizarlo bien y hacer un dual audio los subo, tengo hasta el capitulo 5 capturado,Por mi parte yo tratare de subir los capitulos que tengo asi como lo hago yo es la unica forma que puedo hacerlo siempre reviso bien que quede aceptable el video, si alguien conoce algun tutorial y los programas necesarios para editar bien el audio y el video que me lo pase o lo postee en identi.



Servidor mega,partes 8. 360 MB (377.552.704 bytes) 





General
Complete name                            : H:otrosNEW GIRL 3X02 LATINO.avi
Format                                   : AVI
Format/Info                              : Audio Video Interleave
File size                                : 180 MiB
Duration                                 : 21mn 35s
Overall bit rate                         : 1 167 Kbps
Movie name                               : NEW GIRL 3X02 LATINO
Director                                 : JUANW200
Genre                                    : COMEDIA
Recorded date                            : 26 DE AGOSTO 2014
Writing application                      : VirtualDubMod 1.5.10.3 | www.virtualdub-fr.org || (build 2550/release)
Copyright                                : JUANW200
Comment                                  : http://www.identi.li/index.php?action=profile;user=juanw200

Video
ID                                       : 0
Format                                   : MPEG-4 Visual
Format profile                           : Advanced [email protected]
Format settings, BVOP                    : 1
Format settings, QPel                    : No
Format settings, GMC                     : No warppoints
Format settings, Matrix                  : Custom
Codec ID                                 : XVID
Codec ID/Hint                            : XviD
Duration                                 : 21mn 35s
Bit rate                                 : 1 030 Kbps
Width                                    : 720 pixels
Height                                   : 416 pixels
Display aspect ratio                     : 1.731
Frame rate                               : 23.976 fps
Color space                              : YUV
Chroma subsampling                       : 4:2:0
Bit depth                                : 8 bits
Scan type                                : Progressive
Compression mode                         : Lossy
Bits/(Pixel*Frame)                       : 0.143
Stream size                              : 159 MiB (88%)
Writing library                          : XviD 1.2.1 (UTC 2008-12-04)

Audio
ID                                       : 1
Format                                   : MPEG Audio
Format version                           : Version 1
Format profile                           : Layer 3
Mode                                     : Joint stereo
Mode extension                           : MS Stereo
Codec ID                                 : 55
Codec ID/Hint                            : MP3
Duration                                 : 21mn 35s
Bit rate mode                            : Constant
Bit rate                                 : 128 Kbps
Channel(s)                               : 2 channels
Sampling rate                            : 44.1 KHz
Compression mode                         : Lossy
Delay relative to video                  : 1s 750ms
Stream size                              : 19.8 MiB (11%)
Alignment                                : Split accross interleaves
Interleave, duration                     : 42 ms (1.00 video frame)
Interleave, preload duration             : 500 ms
Writing library                          : LAME3.99r
Encoding settings                        : -m j -V 4 -q 0 -lowpass 17 -b 128
Language                                 : ESPAÑOL LATINO



General
Complete name                            : H:otrosNEW GIRL 3X03 LATINO.avi
Format                                   : AVI
Format/Info                              : Audio Video Interleave
File size                                : 180 MiB
Duration                                 : 21mn 30s
Overall bit rate                         : 1 169 Kbps
Movie name                               : NEW GIRL 3X03 LATINO
Director                                 : JUANW200
Genre                                    : COMEDIA
Recorded date                            :  27 DE AGOSTO 2014
Writing application                      : VirtualDubMod 1.5.10.3 | www.virtualdub-fr.org || (build 2550/release)
Original source form/Name                : NEW GIRL TEMPORADA 3
Copyright                                : JUANW200
Comment                                  : http://www.identi.li/index.php?action=profile;user=juanw200

Video
ID                                       : 0
Format                                   : MPEG-4 Visual
Format profile                           : Advanced [email protected]
Format settings, BVOP                    : 1
Format settings, QPel                    : No
Format settings, GMC                     : No warppoints
Format settings, Matrix                  : Custom
Codec ID                                 : XVID
Codec ID/Hint                            : XviD
Duration                                 : 21mn 30s
Bit rate                                 : 1 031 Kbps
Width                                    : 720 pixels
Height                                   : 416 pixels
Display aspect ratio                     : 1.731
Frame rate                               : 23.976 fps
Color space                              : YUV
Chroma subsampling                       : 4:2:0
Bit depth                                : 8 bits
Scan type                                : Progressive
Compression mode                         : Lossy
Bits/(Pixel*Frame)                       : 0.144
Stream size                              : 159 MiB (88%)
Writing library                          : XviD 1.2.1 (UTC 2008-12-04)

Audio
ID                                       : 1
Format                                   : MPEG Audio
Format version                           : Version 1
Format profile                           : Layer 3
Mode                                     : Joint stereo
Mode extension                           : MS Stereo
Codec ID                                 : 55
Codec ID/Hint                            : MP3
Duration                                 : 21mn 30s
Bit rate mode                            : Constant
Bit rate                                 : 128 Kbps
Channel(s)                               : 2 channels
Sampling rate                            : 44.1 KHz
Compression mode                         : Lossy
Delay relative to video                  : 1s 500ms
Stream size                              : 19.7 MiB (11%)
Alignment                                : Split accross interleaves
Interleave, duration                     : 42 ms (1.00 video frame)
Interleave, preload duration             : 500 ms
Writing library                          : LAME3.99r
Encoding settings                        : -m j -V 4 -q 0 -lowpass 17 -b 128
Language                                 : ESPAÑOL LATINO



Arreglado archivo rar dañado
New girl temporada 3 capitulo 2 y 3 audio latino
50 Puntos Score: 10/10
Visitas: 1352 Favoritos: 5
Ver los usuarios que votaron...
8 Comentarios New girl temporada 3 capitulo 2 y 3 audio latino
hey amigo me sale un erro en la segunda parte del capitulo 2 , podrias checarlo? gracias y que genial que subes la tercer temporada
el capitulo 2 me da error al descomprimir
gracias amigo por los nuevos vere a ver si ami no me da problemas al descomprimir de nuevo gracias por los nuevos seguire al pendiente saludos
Gracias sigue subiendolos, porfavor. 10+  
@kirito_kun @barykelo @drako_jep @SPLICING que parte da error ya funciona o no, para subirla de nuevo
bueno cuando al descargar todo bien pero ami al menos al descomprimir el capitulo 2 me dice que la parte 2 esta da?
Gracias juanw200 por el trabajo...
Para dejar un comentario Registrate! o.. eres ya usuario? Accede!